Бабий бунт (Владимир Иванов) [2011 г., музыкальная комедия, TVRip] Учебный театр Театрального института имени Бориса Щукина


 

[Цитировать]

Бабий бунт Название театра: Учебный театр Театрального института имени Бориса Щукина при государственном академическом театре имени Евг. Вахтангова.
Год выпуска: 2011.
Жанр: музыкальная комедия.
Продолжительность: 02:03:08.
Режиссёр: заслуженный артист России, заслуженный деятель искусств России Владимир Иванов.
Исполнители: студенты выпускного курса под руководством профессора В. П. Николаенко.
О спектакле:
Дополнительная информация:
Вступительное слово: Евгений Князев, Владимир Поглазов, Владимир Иванов.
Страна: Россия
Запись с XII Международного фестиваля театральных школ "Подиум-2011".
Автор: Михаил Шолохов.
Композитор: Евгений Птичкин.
Художник: Максим Обрезков.
Художественный руководитель института: народный артист СССР профессор Владимир Абрамович Этуш.
Ректор института: народный артист России, профессор Евгений Владимирович Князев.

О спектакле.
Форум спектакля.
Релиз

Качество видео:...TVRip
Формат:.................AVI
Видео:..640x352 (1.82:1), 25 fps, XviD MPEG-4 ~1450 kbps avg, 0.26 bit/pixel
Аудио:..44.100 kHz, MPEG Layer 3, 2 ch, ~128.00 kbps avg

Отчет MediaInfo

General
Complete name : Babij.bunt_Teatrl'noe.u4iliwe.im.Wukina.2011.XviD.TVRip.fenixclub.avi
Format : AVI
Format/Info : Audio Video Interleave
File size : 1.37 GiB
Duration : 2h 3mn
Overall bit rate : 1 589 Kbps
Writing library : VirtualDub build 32842/release
Video
ID : 0
Format : MPEG-4 Visual
Format profile : Advanced Simple@L5
Format settings, BVOP : 2
Format settings, QPel : No
Format settings, GMC : No warppoints
Format settings, Matrix : Default (H.263)
Muxing mode : Packed bitstream
Codec ID : XVID
Codec ID/Hint : XviD
Duration : 2h 3mn
Bit rate : 1 451 Kbps
Width : 640 pixels
Height : 352 pixels
Display aspect ratio : 16:9
Frame rate : 25.000 fps
Color space : YUV
Chroma subsampling : 4:2:0
Bit depth : 8 bits
Scan type : Progressive
Compression mode : Lossy
Bits/(Pixel*Frame) : 0.258
Stream size : 1.25 GiB (91%)
Writing library : XviD 1.2.1 (UTC 2008-12-04)
Audio
ID : 1
Format : MPEG Audio
Format version : Version 1
Format profile : Layer 3
Mode : Joint stereo
Mode extension : MS Stereo
Codec ID : 55
Codec ID/Hint : MP3
Duration : 2h 3mn
Bit rate mode : Constant
Bit rate : 128 Kbps
Channel(s) : 2 channels
Sampling rate : 44.1 KHz
Compression mode : Lossy
Stream size : 113 MiB (8%)
Alignment : Split accross interleaves
Interleave, duration : 40 ms (1.00 video frame)
Interleave, preload duration : 500 ms
Writing library : LAME3.98

Скриншоты

Альтернативный хост




Показать сообщения:    

Текущее время: 03-Дек 20:46

Часовой пояс: UTC + 3


Вы не можете начинать темы
Вы не можете отвечать на сообщения
Вы не можете редактировать свои сообщения
Вы не можете удалять свои сообщения
Вы не можете голосовать в опросах
Вы не можете прикреплять файлы к сообщениям
Вы не можете скачивать файлы