Происшествие, которого никто не заметил (Тимур Насиров) [2012 г., мелодрама, WEB-DLRip] Новокузнецкий драматический театр


 

[Цитировать]

Происшествие, которого никто не заметил Название театра: Новокузнецкий драматический театр.
Год выпуска: 2012.
Жанр: мелодрама.
Продолжительность: 01:23:38.
Режиссер: Тимур Насиров (Санкт-Петербург).
Действующие лица и исполнители:
Настя - Мария Стринада,
Мама Насти - Елена Кораблина,
Толя - Евгений Лапшин,
Яков Алексеевич - заслуженный артист России Вячеслав Туев,
Лёша - Андрей Грачев,
Катя - Екатерина Санникова,
Нина Сергеевна - заслуженная артистка России Ирина Шантарь,
Коноплянников - Анатолий Смирнов,
Шурик - Евгений Котин,
Доктор, молодой человек, ведущий - Андрей Ковзель,
Ирина - Полина Зуева,
Валя - Наталья Каллерт.
О спектакле:
Нежный, почти сказочный сюжет о том, как Настя, девушка посредственной внешности, мечтала стать красавицей и встретить настоящую любовь. Внезапно случилось чудо: Настя действительно стала красивой, жизнь ее изменилась. Но по душе ли пришлось это превращение девушке, к каким удивительным событиям оно её привело, об этом и расскажет спектакль - происшествие, которое очень даже заметили – исполнители и зрители.
В сценографии и костюмах стилизованы 70-е годы XX века.

Дополнительная информация:
Страна: Россия .
Автор: Александр Володин.
Художник: Никита Сазонов.
Премьера спектакля состоялась: 25 февраля 2012 года.

О спектакле.
Релиз
Рип sharky.

Качество видео:...WEB-DLRip
Формат:.................AVI
Видео:..704x528 (1.33:1), 25 fps, XviD build 50 ~1664 kbps avg, 0.18 bit/pixel
Аудио:..48 kHz, AC3 Dolby Digital, 2/0 (L,R) ch, ~192 kbps

Отчет MI

Общее
Полное имя : Proisshestvie.kotorogo.nikto.ne.zametil_Novokuzneckij.DT.2012.XviD.WEB-DLRip.fenixclub.avi
Format : AVI
Format/Info : Audio Video Interleave
File size : 1.09 GiB
Duration : 1h 23mn
Overall bit rate : 1 867 Kbps
Writing application : VirtualDubMod 1.5.10.3 | www.virtualdub-fr.org || (build 2550/release)
Writing library : VirtualDubMod build 2550/release
Video
ID : 0
Format : MPEG-4 Visual
Format profile : Advanced Simple@L5
Format settings, BVOP : 1
Format settings, QPel : No
Format settings, GMC : No warppoints
Format settings, Matrix : Default (H.263)
Codec ID : XVID
Codec ID/Hint : XviD
Duration : 1h 23mn
Bit rate : 1 665 Kbps
Width : 704 pixels
Height : 528 pixels
Display aspect ratio : 4:3
Frame rate : 25.000 fps
Color space : YUV
Chroma subsampling : 4:2:0
Bit depth : 8 bits
Scan type : Progressive
Compression mode : Lossy
Bits/(Pixel*Frame) : 0.179
Stream size : 996 MiB (89%)
Writing library : XviD 1.2.1 (UTC 2008-12-04)
Audio
ID : 1
Format : AC-3
Format/Info : Audio Coding 3
Mode extension : CM (complete main)
Format settings, Endianness : Big
Codec ID : 2000
Duration : 1h 23mn
Bit rate mode : Constant
Bit rate : 192 Kbps
Channel(s) : 2 channels
Channel positions : Front: L R
Sampling rate : 48.0 KHz
Bit depth : 16 bits
Compression mode : Lossy
Stream size : 115 MiB (10%)
Alignment : Split accross interleaves
Interleave, duration : 40 ms (1.00 video frame)
Interleave, preload duration : 500 ms.

Скриншоты


Альтернативный хост





Показать сообщения:    

Текущее время: 08-Дек 19:10

Часовой пояс: UTC + 3


Вы не можете начинать темы
Вы не можете отвечать на сообщения
Вы не можете редактировать свои сообщения
Вы не можете удалять свои сообщения
Вы не можете голосовать в опросах
Вы не можете прикреплять файлы к сообщениям
Вы не можете скачивать файлы