Сказки Старого Арбата (Александр Музиль, Василий Чириков) [1973 г., комедия, мелодрама, экранизация, SATRip] Ленинградский государственный академический театр драмы имени А.С.Пушкина


 

[Цитировать]

Сказки Старого Арбата (3 части) Название театра: Ленинградский государственный академический театр драмы имени А.С.Пушкина.
Год выпуска: 1973.
Жанр: комедия, мелодрама, экранизация.
Продолжительность: 00:57:09 + 00:44:04 + 00:51:33 (02:32:46).
Режиссеры: заслуженный деятель искусств РСФСР Александр Музиль, Василий Чириков.
В ролях:
Балясников Федор Кузьмич, мастер кукол - народный артист СССР Бруно Фрейндлих,
Кузьма, его сын, студент - Виктор Семеновский,
Христофор Блохин, подручный Балясникова, а также его тихий преданный друг - народный артист СССР Юрий Толубеев,
Виктоша, милая приезжая из Ленинграда, в будущем знаменитость - Нелли Максимова,
Лёвушка, её жених - заслуженный артист РСФСР (Семён Сытник,
Толстячок - народный артист СССР Александр Борисов.
Описание:
#1. "Шестидесятые годы прошлого века. Москва. Район переулков старого Арбата. Комедия разыгрывается в причудливом кабинете Федора Балясникова. В течение всей пьесы на дворе стоит чудесная погода, и только в пятой картине идёт дождь. Пьесу рекомендуется играть стремительно, даже сентиментальности придавая оттенок азарта." (Автор)
#2. В доме знаменитых кукольников Балясникова и Блохина появляется девушка Виктоша, в которую влюбляются и хозяева квартиры,
и сын Балясникова Кузьма.

Дополнительная информация:
За три года со дня постановки "Сказки Старого Арбата" были сыграны 1827 раз.
Страна: СССР .
Выпущено: Главная редакция литературно-драматических программ ЦТ.
Режиссер-постановщик спектакля: заслуженный деятель искусств РСФСР Александр Музиль.
Режиссер телеверсии: Василий Чирков.
Автор: Алексей Арбузов.
Оператор-постановщик: Иван Минеев.
Художник: Март Китаев.
Премьера спектакля состоялась в 1970 году.

Еще постеры



Релиз
Рип lesik689.

Качество: SATRip
Формат: AVI
Видео: 704x528 (1.33:1), 25 fps, XviD MPEG-4 ~1848 kbps avg, 0.20 bit/pixel
Аудио: 48 kHz, AC3 Dolby Digital, 2/0 (L,R) ch, ~192 kbps

Отчет Media Info

1-я часть
Общее
Полное имя : Skazki.Starogo.Arbata.1973.XviD.SATRip.fenixclub\Skazki.Starogo.Arbata.1973.XviD.SATRip.fenixclub_1.avi
Format : AVI
Format/Info : Audio Video Interleave
File size : 812 MiB
Duration : 57mn 9s
Overall bit rate : 1 986 Kbps
Writing application : VirtualDubMod 1.5.10.2 (build 2542/release)
Writing library : VirtualDubMod build 2542/release
Video
ID : 0
Format : MPEG-4 Visual
Format profile : Advanced Simple@L5
Format settings, BVOP : 2
Format settings, QPel : No
Format settings, GMC : No warppoints
Format settings, Matrix : Default (MPEG)
Muxing mode : Packed bitstream
Codec ID : XVID
Codec ID/Hint : XviD
Duration : 57mn 9s
Bit rate : 1 848 Kbps
Width : 704 pixels
Height : 528 pixels
Display aspect ratio : 5:4
Original display aspect ratio : 4:3
Frame rate : 25.000 fps
Color space : YUV
Chroma subsampling : 4:2:0
Bit depth : 8 bits
Scan type : Progressive
Compression mode : Lossy
Bits/(Pixel*Frame) : 0.199
Stream size : 756 MiB (93%)
Writing library : XviD 64
Audio
ID : 1
Format : MPEG Audio
Format version : Version 1
Format profile : Layer 3
Mode : Joint stereo
Codec ID : 55
Codec ID/Hint : MP3
Duration : 57mn 9s
Bit rate mode : Constant
Bit rate : 128 Kbps
Channel(s) : 2 channels
Sampling rate : 48.0 KHz
Compression mode : Lossy
Stream size : 52.3 MiB (6%)
Alignment : Split accross interleaves
Interleave, duration : 40 ms (1.00 video frame)
Interleave, preload duration : 500 ms.
2-я часть
Общее
Полное имя : Skazki.Starogo.Arbata.1973.XviD.SATRip.fenixclub\Skazki.Starogo.Arbata.1973.XviD.SATRip.fenixclub_2.avi
Format : AVI
Format/Info : Audio Video Interleave
File size : 626 MiB
Duration : 44mn 3s
Overall bit rate : 1 985 Kbps
Writing application : VirtualDubMod 1.5.10.2 (build 2542/release)
Writing library : VirtualDubMod build 2542/release
Video
ID : 0
Format : MPEG-4 Visual
Format profile : Advanced Simple@L5
Format settings, BVOP : 2
Format settings, QPel : No
Format settings, GMC : No warppoints
Format settings, Matrix : Default (MPEG)
Muxing mode : Packed bitstream
Codec ID : XVID
Codec ID/Hint : XviD
Duration : 44mn 3s
Bit rate : 1 848 Kbps
Width : 704 pixels
Height : 528 pixels
Display aspect ratio : 5:4
Original display aspect ratio : 4:3
Frame rate : 25.000 fps
Color space : YUV
Chroma subsampling : 4:2:0
Bit depth : 8 bits
Scan type : Progressive
Compression mode : Lossy
Bits/(Pixel*Frame) : 0.199
Stream size : 582 MiB (93%)
Writing library : XviD 64
Audio
ID : 1
Format : MPEG Audio
Format version : Version 1
Format profile : Layer 3
Mode : Joint stereo
Mode extension : MS Stereo
Codec ID : 55
Codec ID/Hint : MP3
Duration : 44mn 3s
Bit rate mode : Constant
Bit rate : 128 Kbps
Channel(s) : 2 channels
Sampling rate : 48.0 KHz
Compression mode : Lossy
Stream size : 40.3 MiB (6%)
Alignment : Split accross interleaves
Interleave, duration : 40 ms (1.00 video frame)
Interleave, preload duration : 500 ms.
3-я часть
Общее
Полное имя : Skazki.Starogo.Arbata.1973.XviD.SATRip.fenixclub\Skazki.Starogo.Arbata.1973.XviD.SATRip.fenixclub_3.avi
Format : AVI
Format/Info : Audio Video Interleave
File size : 732 MiB
Duration : 51mn 32s
Overall bit rate : 1 985 Kbps
Writing application : VirtualDubMod 1.5.10.2 (build 2542/release)
Writing library : VirtualDubMod build 2542/release
Video
ID : 0
Format : MPEG-4 Visual
Format profile : Advanced Simple@L5
Format settings, BVOP : 2
Format settings, QPel : No
Format settings, GMC : No warppoints
Format settings, Matrix : Default (MPEG)
Muxing mode : Packed bitstream
Codec ID : XVID
Codec ID/Hint : XviD
Duration : 51mn 32s
Bit rate : 1 848 Kbps
Width : 704 pixels
Height : 528 pixels
Display aspect ratio : 5:4
Original display aspect ratio : 4:3
Frame rate : 25.000 fps
Color space : YUV
Chroma subsampling : 4:2:0
Bit depth : 8 bits
Scan type : Progressive
Compression mode : Lossy
Bits/(Pixel*Frame) : 0.199
Stream size : 681 MiB (93%)
Writing library : XviD 64
Audio
ID : 1
Format : MPEG Audio
Format version : Version 1
Format profile : Layer 3
Mode : Joint stereo
Mode extension : MS Stereo
Codec ID : 55
Codec ID/Hint : MP3
Duration : 51mn 32s
Bit rate mode : Constant
Bit rate : 128 Kbps
Channel(s) : 2 channels
Sampling rate : 48.0 KHz
Compression mode : Lossy
Stream size : 47.2 MiB (6%)
Alignment : Split accross interleaves
Interleave, duration : 40 ms (1.00 video frame)
Interleave, preload duration : 500 ms.

Скриншоты


Альтернативный хост





Показать сообщения:    

Текущее время: 05-Дек 17:36

Часовой пояс: UTC + 3


Вы не можете начинать темы
Вы не можете отвечать на сообщения
Вы не можете редактировать свои сообщения
Вы не можете удалять свои сообщения
Вы не можете голосовать в опросах
Вы не можете прикреплять файлы к сообщениям
Вы не можете скачивать файлы