О мышах и людях (Вячеслав Гвоздков) [2001, Россия, Философско-социальная драма, SATRip] Самарский академический театр драмы им. Горького


 

[Цитировать]

О мышах и людях
Название театра: Самарский академический театр драмы им. Горького Страна: Россия
Жанр: Философско-социальная драма
Год выпуска: 2001
Продолжительность: 01:56:52
Перевод: Не требуется
Язык: Русский
Cубтитры: нет
Оригинальная аудиодорожка: нет
Режиссёр: Вячеслав Гвоздков-
-
-В ролях: Александр Амелин, Денис Евневич, Олег Белов, Юрий Машкин, Алина Евневич, Виктор Мирный, Вадим Богданов, Хамид Дышниев, Игорь Новиков, Владимир Сапрыкин-
-
-Описание:Самарский театр драмы взялся восстановить легендарный спектакль «О мышах и людях», с которого в 1997-м начиналась карьера нового худрука Вячеслава Гвоздкова и взлет актера Александра Амелина. Скончавшегося в прошлом году Амелина-старшего заменит Александр Амелин-младший — полный тезка, артист Моссовета.Семпл: http://yadi.sk/d/aR534jDYNyfvW
Качество видео: SATRip
Формат видео: AVI
Видео: Xvid/ 640х468 / 1796 kbps / 23,976 кадра/сек
Аудио: MPEG Audio Layer 3 (MP3), 2 channels - Joint stereo, 48.0 kHz, 128 kbps

MediaInfo

Общее
Полное имя : D:\Кино-музыка\О мышах и людях.avi
Формат : AVI
Формат/Информация : Audio Video Interleave
Профиль формата : OpenDML
Размер файла : 1,58 Гбайт
Продолжительность : 1 ч. 56 м.
Общий поток : 1938 Кбит/сек
Программа кодирования : Lavf52.95.0
Видео
Идентификатор : 0
Формат : xvid
Идентификатор кодека : xvid
Продолжительность : 1 ч. 56 м.
Битрейт : 1796 Кбит/сек
Ширина : 640 пикселей
Высота : 468 пикселей
Соотношение сторон : 4:3
Частота кадров : 25,000 кадров/сек
Бит/(Пиксели*Кадры) : 0.240
Размер потока : 1,47 Гбайт (93%)
Аудио
Идентификатор : 1
Формат : MPEG Audio
Версия формата : Version 1
Профиль формата : Layer 3
Идентификатор кодека : 55
Идентификатор кодека/Подсказка : MP3
Продолжительность : 1 ч. 56 м.
Вид битрейта : Постоянный
Битрейт : 128 Кбит/сек
Каналы : 1 канал
Частота : 48,0 КГц
Метод сжатия : С потерями
Размер потока : 107 Мбайт (7%)
Выравнивание : Соединение по промежуткам
Продолжительность промежутка : 24 мс. (0,60 видеокадр)
Библиотека кодирования : LAME3.98.4

Скриншот с названием постановкиНЕТУ Скриншоты




Показать сообщения:    

Текущее время: 08-Дек 21:12

Часовой пояс: UTC + 3


Вы не можете начинать темы
Вы не можете отвечать на сообщения
Вы не можете редактировать свои сообщения
Вы не можете удалять свои сообщения
Вы не можете голосовать в опросах
Вы не можете прикреплять файлы к сообщениям
Вы не можете скачивать файлы