Враги (Владимир Немирович-Данченко, Михаил Кедров) [1972, драма, SATRip] Московский Художественный Академический Театр


 

[Цитировать]

Враги
Московский Художественный Академический Театр
Жанр: драма
Год выпуска: 1972
Продолжительность: 02:16:11
Режиссёры: Владимир Немирович-Данченко, Михаил Кедров
В ролях:
Бардин Захар - Павел Массальский
Полина, его жена - Алла Тарасова
Бардин Яков - Леонид Губанов
Татьяна, его жена - Маргарита Юрьева
Надя, племянница Полина - Нина Гуляева
Печенегов, генерал в отставке - Борис Петкер
Скроботов Михаил - Марк Прудкин
Клеопатра, его жена - Елена Хромова
Скроботов Николай - Владлен Давыдов
Синцов, конторщик - Николай Алексеев
Пологий, конторщик - Владимир Богомолов
Конь, отставной солдат - Дмитрий Шутов
Левшин - Алексей Грибов
Греков - Иван Власов
Ягодин - Валерий Пушкарев
Рябцов - Алексей Борзунов
Акимов - Всеволод Абдулов
Аграфена, экономка - Мария Титова
Бобоедов, ротмистр - Георгий Колчицкий
Квач, вахмистр - Виктор Новосельский
Поручик - Владимир Трошин
Становой - Николой Ковшов
Урядник - Петр Кудлай
Следователь - Владислав Буш
Письмоводитель - Николай Цорн
Описание: Канун 1905 года. Неспокойно стало на фабрике Скроботова и Бардина. В ответ на справедливое требование рабочих уволить жестокого и грубого мастера хозяева закрывают фабрику и вызывают войска. Выстрел одного из рабочих, не сумевшего сдержать порыва ненависти к хозяевам, обрывает жизнь Скроботова. На фабрику прибывают жандармы. Им удается раскрыть действовавшую на фабрике социал-демократическую организацию. Арестованные рабочие противопоставляют истерической жестокости жандармов спокойное, уверенное мужество.
Релиз:
Семпл: https://www.mediafire.com/?bxprp4stepp1r82
Качество видео: SATRip
Формат видео: AVI
Видео: 720x544 (1.32:1), 25 fps, XviD MPEG-4 ~1387 kbps avg, 0.14 bit/pixel
Аудио: 44.100 kHz, MPEG Layer 3, 2 ch, ~128.00 kbps avg

MediaInfo

Полное имя : Vragi.1972.SATRip.fenixclub.avi
Формат : AVI
Формат/Информация : Audio Video Interleave
Размер файла : 1,45 Гбайт
Продолжительность : 2 ч. 16 м.
Общий поток : 1525 Кбит/сек
Видео
Идентификатор : 0
Формат : MPEG-4 Visual
Профиль формата : Advanced Simple@L5
Параметр BVOP формата : 2
Параметр QPel формата : Нет
Параметр GMC формата : Без точки перехода
Параметр матрицы формата : Default (H.263)
Идентификатор кодека : XVID
Идентификатор кодека/Подсказка : XviD
Продолжительность : 2 ч. 16 м.
Битрейт : 1387 Кбит/сек
Ширина : 720 пикселей
Высота : 544 пикселя
Соотношение сторон : 4:3
Частота кадров : 25,000 кадров/сек
Цветовое пространство : YUV
Субдискретизация насыщенности : 4:2:0
Битовая глубина : 8 бит
Тип развёртки : Прогрессивная
Метод сжатия : С потерями
Бит/(Пиксели*Кадры) : 0.142
Размер потока : 1,32 Гбайт (91%)
Библиотека кодирования : XviD 1.2.1 (UTC 2008-12-04)
Аудио
Идентификатор : 1
Формат : MPEG Audio
Версия формата : Version 1
Профиль формата : Layer 3
Режим : Joint stereo
Расширение режима : MS Stereo
Идентификатор кодека : 55
Идентификатор кодека/Подсказка : MP3
Продолжительность : 2 ч. 16 м.
Продолжительность оригинала : 2 ч. 16 м.
Вид битрейта : Постоянный
Битрейт : 128 Кбит/сек
Каналы : 2 канала
Частота : 44,1 КГц
Метод сжатия : С потерями
Размер потока : 125 Мбайт (8%)
Выравнивание : Соединение по промежуткам
Продолжительность промежутка : 40 мс. (1,00 видеокадр)

Скриншот с названием постановки

Скриншоты





Показать сообщения:    

Текущее время: 04-Дек 15:14

Часовой пояс: UTC + 3


Вы не можете начинать темы
Вы не можете отвечать на сообщения
Вы не можете редактировать свои сообщения
Вы не можете удалять свои сообщения
Вы не можете голосовать в опросах
Вы не можете прикреплять файлы к сообщениям
Вы не можете скачивать файлы