Случай в гостинице (Александр Прошкин, Лидия Ишимбаева) [1967, драма, DVB]


 

[Цитировать]

Случай в гостинице
Жанр: драма
Год выпуска: 1967
Продолжительность: 01:13:06
Режиссёр: Александр Прошкин, Лидия Ишимбаева
В ролях: Юрий Соломин, Никита Подгорный, Георгий Куликов, Татьяна Панкова, Юрий Васильев, Александр Потапов, Виталий Соломин, Георгий Оболенский, Виктория Лепко, Сергей Харченко, Александр Грузинский, Геннадий Сергеев, Анатолий Ларионов
Описание: В гостиницу, где уже есть несколько постояльцев (художник - Н.Подгорный, студент-медик - Ю.Соломин и др.), вламывается группа парней (среди которых В.Соломин), незадолго до этого сбивших на машине мотоциклиста с пассажиркой.
Доп. информация:
Запись потока *.ts со спутника EUTELSAT 36A/B, 36° в.д., ремукс в *.mpg программой VideoReDo.
Качество видео: DVB
Формат видео: MPEG-PS
Видео: MPEG Video, 720(768)x576 (4:3), 25,000 кадров/сек, 4834 Кбит/сек
Аудио: MPEG Audio, 48,0 КГц, 192 Кбит/сек, 2 канала

MediaInfo

Общее
Полное имя : D:\Torrent\СЛУЧАЙ В ГОСТИНИЦЕ (Ностальгия).mpg
Формат : MPEG-PS
Размер файла : 2,62 Гбайт
Продолжительность : 1 ч. 13 м.
Режим общего битрейта : Переменный
Общий поток : 5127 Кбит/сек
Видео
Идентификатор : 224 (0xE0)
Формат : MPEG Video
Версия формата : Version 2
Профиль формата : Main@Main
Параметр BVOP формата : Да
Параметр матрицы формата : Выборочная
Параметр GOP формата : M=3, N=36
Format_Settings_PictureStructure : Frame
Продолжительность : 1 ч. 13 м.
Вид битрейта : Переменный
Битрейт : 4833 Кбит/сек
Максимальный битрейт : 15,0 Мбит/сек
Ширина : 720 пикселей
Высота : 576 пикселей
Соотношение сторон : 4:3
Частота кадров : 25,000 кадров/сек
Стандарт вещания : PAL
Цветовое пространство : YUV
Субдискретизация насыщенности : 4:2:0
Битовая глубина : 8 бит
Тип развёртки : Чересстрочная
Порядок развёртки : Верхнее поле первое
Метод сжатия : С потерями
Бит/(Пиксели*Кадры) : 0.466
Временной код первого кадра : 00:00:00:00
Оригинал временного кода : Group of pictures header
Размер потока : 2,47 Гбайт (94%)
Аудио
Идентификатор : 192 (0xC0)
Формат : MPEG Audio
Версия формата : Version 1
Профиль формата : Layer 2
Продолжительность : 1 ч. 13 м.
Вид битрейта : Постоянный
Битрейт : 192 Кбит/сек
Каналы : 2 канала
Частота : 48,0 КГц
Метод сжатия : С потерями
Задержка видео : 7 мс.
Размер потока : 100 Мбайт (4%)

Скриншот с названием постановки




Показать сообщения:    

Текущее время: 06-Дек 17:06

Часовой пояс: UTC + 3


Вы не можете начинать темы
Вы не можете отвечать на сообщения
Вы не можете редактировать свои сообщения
Вы не можете удалять свои сообщения
Вы не можете голосовать в опросах
Вы не можете прикреплять файлы к сообщениям
Вы не можете скачивать файлы