Екклесиаст (Руслан Кудашов, Ирина Ляховская) [2013 г., Импровизация на тему, SATRip] Большой Театр Кукол, г. Санкт-Петербург


 

[Цитировать]

Екклесиаст Название театра: Большой Театр Кукол, г. Санкт-Петербург.
Год выпуска: 2013.
Жанр: Импровизация на тему.
Продолжительность: 01:34:05.
Режиссеры и хореографы: Руслан Кудашов, Ирина Ляховская.
В ролях: студенты Мастерской Кудашова.
О спектакле:
"Екклесиаст" - экспериментальная постановка режиссера Руслана Кудашова и хореографа Ирины Ляховской. В этом спектакле, несмотря на то, что он входит в репертуар Большого театра кукол, на сцене - только актеры и ни одной куклы, если только не трактовать самого артиста как куклу, на чем настаивал, например, Гордон Крэг. Экспериментальный курс, который Руслан Кудашев набирал специально для работы в кукольном театре, проходит такую вот постепенную адаптацию, через целую серию дипломных спектаклей, в которых кукол нет, зато много песен, движения, музыки. Это спектакль-импровизация на тему знаменитой книги Ветхого Завета, одного из наиболее глубоких философских трактатов древности, провоцирующий на поиск смысла бытия в вечном круговороте дней. Что пользы человеку от всех трудов его, которыми трудится он под солнцем? К чему движется человек? Есть ли смысл в его бесконечном беге? Есть ли покой? Гармония? Свобода? Справедливость? И кто знает: мудрый ли будет он, или глупый? - вопросы из Книги Екклесиаста, которые выносят в эпиграф создатели спектакля.
Выбор материала режиссер объясняет так: "Екклесиаст" - единственное светское произведение Библии, оно идет от человека, от размышлений ума и плоти. В этом смысле физическое тело, которое мы в спектакле, грубо говоря, эксплуатируем - как нельзя лучше соответствует духу "Екклесиаста". Кроме плоти здесь существует еще и песок - в нем копошатся, он ускользает, от него поднимается пыль... Все вместе создает единую языковую систему, несет смысловые образы книги.

Дополнительная информация:
Страна: Россия .
Выпущено: Культура.рф.
Художник по свету: Лариса Новикова.
Звукорежиссёр: Анатолий Гонье, Юлия Гладышева.
Премьера спектакля состоялась 14 февраля 2012 года.
Сайт театра.
О спектакле.
Релиз

Качество видео:...SATRip
Формат:.................AVI
Видео:..720x400 (1.80:1), 25 fps, XviD MPEG-4 ~1934 kbps avg, 0.27 bit/pixel
Аудио:..44.100 kHz, MPEG Layer 3, 2 ch, ~128.00 kbps avg

Отчет Media Info

General
Complete name : Ekklesiast_Bol'shoj.Teatr.Kukol.2013.XviD.SATRip.fenixclub.avi
Format : AVI
Format/Info : Audio Video Interleave
File size : 1.36 GiB
Duration : 1h 34mn
Overall bit rate : 2 073 Kbps
Writing application : VirtualDubModRus 1.5.10.2 (build 2542/release)
Writing library : VirtualDub build 32842/release
Video
ID : 0
Format : MPEG-4 Visual
Format profile : Advanced Simple@L5
Format settings, BVOP : 2
Format settings, QPel : No
Format settings, GMC : No warppoints
Format settings, Matrix : Default (H.263)
Muxing mode : Packed bitstream
Codec ID : XVID
Codec ID/Hint : XviD
Duration : 1h 34mn
Bit rate : 1 935 Kbps
Width : 720 pixels
Height : 400 pixels
Display aspect ratio : 16:9
Frame rate : 25.000 fps
Color space : YUV
Chroma subsampling : 4:2:0
Bit depth : 8 bits
Scan type : Progressive
Compression mode : Lossy
Bits/(Pixel*Frame) : 0.269
Stream size : 1.27 GiB (93%)
Writing library : XviD 1.2.1 (UTC 2008-12-04)
Audio
ID : 1
Format : MPEG Audio
Format version : Version 1
Format profile : Layer 3
Mode : Joint stereo
Mode extension : MS Stereo
Codec ID : 55
Codec ID/Hint : MP3
Duration : 1h 34mn
Bit rate mode : Constant
Bit rate : 128 Kbps
Channel(s) : 2 channels
Sampling rate : 44.1 KHz
Compression mode : Lossy
Stream size : 86.1 MiB (6%)
Alignment : Split accross interleaves
Interleave, duration : 40 ms (1.00 video frame)
Interleave, preload duration : 500 ms
Writing library : LAME3.98

Скриншоты

Альтернативный хост




Показать сообщения:    

Текущее время: 07-Дек 11:38

Часовой пояс: UTC + 3


Вы не можете начинать темы
Вы не можете отвечать на сообщения
Вы не можете редактировать свои сообщения
Вы не можете удалять свои сообщения
Вы не можете голосовать в опросах
Вы не можете прикреплять файлы к сообщениям
Вы не можете скачивать файлы