Шалом солдат (Ольга Голодницкая) [2001 г., трагикомедия, WEB-DLRip] Костромской муниципальный Камерный драматический театр под руководством Б. И. Голодницкого


 

[Цитировать]

Шалом солдат Название театра: Костромской муниципальный Камерный драматический театр под руководством Б. И. Голодницкого.
Год выпуска: 2001.
Жанр: трагикомедия.
Продолжительность: 02:01:46.
Режиссер-постановщик: Ольга Голодницкая.
В ролях: актеры театра.
О спектакле:
По одноимённой пьесе Владимира Орлова.
Эта история о том, как найти дорогу к своему сердцу, своей душе и памяти. Произошла она в прошлом веке, но не потеряла актуальности и в наше время, потому что поднимает проблемы вечных истин.
Маленьким семилетним мальчиком Иакова отдали в кантонисты, в палочную академию, чтобы стереть его детскую память, уничтожить родительские корни, чтобы он навсегда забыл язык, на котором говорили его родители, пели еврейские песни и читали ему на ночь стихи. А потом Иакова 25 лет крестили розгами и палками, кулаком фельдфебеля в рекрутах, где служил он рядовым казачьей бригады драгунского полка и проливал за Россию-матушку свою еврейскую кровь, заслужив три нашивки за безупречную службу царю и отечеству. Фамилию ему дал командир полка — полковник Орлов. И стал Иаков — Иаковым Орловым. И выжил, слава Богу!
Теперь на Родину свою идет, а найти ее не может. Никак не вспомнит, где его родное местечко.
А ноги и детская память приводят все же солдата в родное местечко, только он сам не знает, что пришел домой. Мы все родом из детства!!! Здесь его встречает старый раввин — Реб Лазарь и, выслушав непростую книгу жизни Иакова, не может рассказать, чтобы не разорвалось от боли сердце солдата, о том, что когда-то вырвали мальчонку из рук несчастной матери. Она пошла и утопилась в проруби, отец сошел с ума, а двух его сестричек куда-то увезли дальние родственники. Пусть живет он под фамилией Орлов, и до конца дней не покидает его надежда!
И в этом родном местечке сердце Иакова раскрылось навстречу любви к Рахиль, жене кузнеца. Встретились мужчина и женщина, обделенные до сих пор любовью и теплом, чистые и светлые, соединенные Богом люди, достойные любви и счастья! Душу, которую долго убивали, воскресила любовь! Как зерно в земле ждет свою дождинку, так Иаков и Рахиль ждали друг друга!
Мир «местечка» раскрывается яркими народными персонажами и характерами, национальным юмором и острым языком.
Персонажи спектакля смотрят на нас глазами раввина — Реб Лазаря. Его мудростью и юмором наполнен воздух «местечка», быт и жизнь дорогих и близких.

Дополнительная информация:
Страна: Россия .
Автор: Владимир Орлов.
Сценография, костюмы: Борис Голодницкий.
Композитор: Габил Зейналов.
Балетмейстер: Надежда Груздева.
Награды и номинации:
• 2001, Казань - Спектакль - дипломант Общероссийского фестиваля искусств имени Юрия Плинера.

О спектакле.
Релиз
Рип sharky.

Качество видео:...WEB-DLRip
Формат:.................AVI
Видео:..704x528 (1.33:1), 25 fps, DivX Codec 4.x ~1599 kbps avg, 0.17 bit/pixel
Аудио:..44.100 kHz, MPEG Layer 3, 2 ch, ~128.00 kbps avg

Отчет Media Info

General
Complete name : Shalom.soldat_Kostromskoj.MKDT.2001.DivX.WEB-DLRip.avi
Format : AVI
Format/Info : Audio Video Interleave
File size : 1.45 GiB
Duration : 2h 1mn
Overall bit rate : 1 709 Kbps
Video
ID : 0
Format : MPEG-4 Visual
Format settings, BVOP : 1
Format settings, QPel : No
Format settings, GMC : No warppoints
Format settings, Matrix : Default (H.263)
Muxing mode : Packed bitstream
Codec ID : DX50
Codec ID/Hint : DivX 5
Duration : 2h 1mn
Bit rate : 1 571 Kbps
Width : 704 pixels
Height : 528 pixels
Display aspect ratio : 4:3
Frame rate : 25.000 fps
Color space : YUV
Chroma subsampling : 4:2:0
Bit depth : 8 bits
Scan type : Progressive
Compression mode : Lossy
Bits/(Pixel*Frame) : 0.169
Stream size : 1.34 GiB (92%)
Title : Video
Writing library : DivX 3013
Audio
ID : 1
Format : MPEG Audio
Format version : Version 1
Format profile : Layer 3
Codec ID : 55
Codec ID/Hint : MP3
Duration : 2h 1mn
Bit rate mode : Constant
Bit rate : 128 Kbps
Channel(s) : 2 channels
Sampling rate : 44.1 KHz
Compression mode : Lossy
Stream size : 111 MiB (7%)
Alignment : Split accross interleaves
Interleave, duration : 40 ms (1.00 video frame)
Interleave, preload duration : 500 ms
Title : Audio

Скриншоты


Альтернативный хост





Показать сообщения:    

Текущее время: 03-Дек 16:40

Часовой пояс: UTC + 3


Вы не можете начинать темы
Вы не можете отвечать на сообщения
Вы не можете редактировать свои сообщения
Вы не можете удалять свои сообщения
Вы не можете голосовать в опросах
Вы не можете прикреплять файлы к сообщениям
Вы не можете скачивать файлы