Что случилось в зоопарке? (Елена Яцкова) [2013 г., Украина, трагифарс, WEB-DLRip] Запорожский муниципальный театр-лаборатория "VIE"


 

[Цитировать]

Что случилось в зоопарке? Название театра: Запорожский муниципальный театр-лаборатория "VIE".
Год выпуска: 2013.
Страна: Украина .
Жанр: трагифарс.
Продолжительность: 01:00:37.
Язык: русский.
Режиссер: Елена Яцкова.
Действующие лица и исполнители:
Питер - Николай Махевский,
Джерри - Павел Неброев.
О спектакле:
По пьесе Эдварда Олби.
Иногда человек должен сделать большой крюк в сторону, чтобы верным и кратчайшим путем вернуться назад..." (с)
Действие пьесы происходит в Центральном парке Нью-Йорка. Здесь, в уединенном местечке, на своей любимой скамейке, предпочитает отдыхать Питер. У него есть работа, жена, две дочери, попугайчики и кошки. И вот в один из солнечных воскресных дней в его жизнь врывается некий Джерри...

Дополнительная информация:
Автор: Эдвард Олби.
Сайт театра.
О театре.
Релиз
Рип sharky.

Качество видео:...WEB-DLRip
Формат:.................AVI
Видео:..704x528 (1.33:1), 25 fps, DivX Codec 4.x ~1581 kbps avg, 0.17 bit/pixel
Аудио:..44.100 kHz, MPEG Layer 3, 2 ch, ~128.00 kbps avg

Отчет MI

Общее
Полное имя : 4to.clu4ilos'.v.zooparke_Zaporozhskij.MTL.VIE.2012.DivX.WEB-DLRip.fenixclub.avi
Format : AVI
Format/Info : Audio Video Interleave
File size : 745 MiB
Duration : 1h 0mn
Overall bit rate : 1 719 Kbps
Video
ID : 0
Format : MPEG-4 Visual
Format settings, BVOP : 1
Format settings, QPel : No
Format settings, GMC : No warppoints
Format settings, Matrix : Default (H.263)
Muxing mode : Packed bitstream
Codec ID : DX50
Codec ID/Hint : DivX 5
Duration : 1h 0mn
Bit rate : 1 582 Kbps
Width : 704 pixels
Height : 528 pixels
Display aspect ratio : 4:3
Frame rate : 25.000 fps
Color space : YUV
Chroma subsampling : 4:2:0
Bit depth : 8 bits
Scan type : Progressive
Compression mode : Lossy
Bits/(Pixel*Frame) : 0.170
Stream size : 686 MiB (92%)
Title : Video
Writing library : DivX 3013
Audio
ID : 1
Format : MPEG Audio
Format version : Version 1
Format profile : Layer 3
Codec ID : 55
Codec ID/Hint : MP3
Duration : 1h 0mn
Bit rate mode : Constant
Bit rate : 128 Kbps
Channel(s) : 2 channels
Sampling rate : 44.1 KHz
Compression mode : Lossy
Stream size : 55.5 MiB (7%)
Alignment : Split accross interleaves
Interleave, duration : 40 ms (1.00 video frame)
Interleave, preload duration : 500 ms
Title : Audio

Скриншоты


Альтернативный хост





Показать сообщения:    

Текущее время: 06-Дек 20:58

Часовой пояс: UTC + 3


Вы не можете начинать темы
Вы не можете отвечать на сообщения
Вы не можете редактировать свои сообщения
Вы не можете удалять свои сообщения
Вы не можете голосовать в опросах
Вы не можете прикреплять файлы к сообщениям
Вы не можете скачивать файлы