Балаганчик (Татьяна Захарова) [2008 г., трагифарс, WEB-DLRip] Новокузнецкий драматический театр


 

[Цитировать]

Балаганчик Название театра: Новокузнецкий драматический театр.
Год выпуска: 2008.
Жанр: трагифарс.
Продолжительность: 00:58:06.
Режиссер: Татьяна Захарова (Санкт-Петербург).
В ролях:
Евгений Любицкий, заслуженная артистка России Вероника Березнякова, заслуженный артист России Станислав Сафонов, Степан Мамойкин, Наталья Каллерт, Андрей Ковзель, Людмила Адаменко, Анатолий Смирнов, Вера Кораблина, Константин Тимофеев, Илона Литвиненко, Мария Павловец, Татьяна Кораблева, Алена Сигорская.
О спектакле:
Написанная для театра Всеволода Мейерхольда в 1906 году, пьеса Алексанра Блока и сегодня открывает широчайшие возможности для театра: блоковская тоска о выходе из мира сгущённой тьмы в мир добра, деятельности и света не может не быть близкой современному зрителю. Мир готовых стандартов и заданных моделей поведения становится тюрьмой для персонажей «Балаганчика», они стремятся во что бы то ни стало переменить свою участь, пусть даже ценою жизни.
Конфликт светлых и тёмных сил обостряется ещё и за счёт самых разнообразных любовных историй, которые развиваются тоже по тривиальной схеме взаимоотношений: Пьеро — Коломбина — Арлекин. Спектакль обещает стать подлинным праздником для всех поклонников театрального искусства.

Дополнительная информация:
Страна: Россия .
Автор: Александр Блок.
Художник: Владимир Королев.
Балетмейстер: Светлана Скосырская (Тюмень).

О спектакле.
Релиз
Рип sharky.

Качество видео:...WEB-DLRip
Формат:.................AVI
Видео:..704x528 (1.33:1), 25 fps, XviD build 50 ~1592 kbps avg, 0.17 bit/pixel
Аудио:..48 kHz, AC3 Dolby Digital, 2/0 (L,R) ch, ~192 kbps

Отчет MI

Общее
Полное имя : Balaganchik_Novokuzneckij.DT.2008.XviD.WEB-DLRip.fenixclub.avi
Format : AVI
Format/Info : Audio Video Interleave
File size : 746 MiB
Duration : 58mn 6s
Overall bit rate : 1 794 Kbps
Writing application : VirtualDubMod 1.5.10.3 | www.virtualdub-fr.org || (build 2550/release)
Writing library : VirtualDubMod build 2550/release
Video
ID : 0
Format : MPEG-4 Visual
Format profile : Advanced Simple@L5
Format settings, BVOP : 1
Format settings, QPel : No
Format settings, GMC : No warppoints
Format settings, Matrix : Default (H.263)
Codec ID : XVID
Codec ID/Hint : XviD
Duration : 58mn 6s
Bit rate : 1 593 Kbps
Width : 704 pixels
Height : 528 pixels
Display aspect ratio : 4:3
Frame rate : 25.000 fps
Color space : YUV
Chroma subsampling : 4:2:0
Bit depth : 8 bits
Scan type : Progressive
Compression mode : Lossy
Bits/(Pixel*Frame) : 0.171
Stream size : 662 MiB (89%)
Writing library : XviD 1.2.1 (UTC 2008-12-04)
Audio
ID : 1
Format : AC-3
Format/Info : Audio Coding 3
Mode extension : CM (complete main)
Format settings, Endianness : Big
Codec ID : 2000
Duration : 58mn 6s
Bit rate mode : Constant
Bit rate : 192 Kbps
Channel(s) : 2 channels
Channel positions : Front: L R
Sampling rate : 48.0 KHz
Bit depth : 16 bits
Compression mode : Lossy
Stream size : 79.8 MiB (11%)
Alignment : Split accross interleaves
Interleave, duration : 40 ms (1.00 video frame)
Interleave, preload duration : 500 ms.

Скриншоты


Альтернативный хост





Показать сообщения:    

Текущее время: 05-Дек 01:25

Часовой пояс: UTC + 3


Вы не можете начинать темы
Вы не можете отвечать на сообщения
Вы не можете редактировать свои сообщения
Вы не можете удалять свои сообщения
Вы не можете голосовать в опросах
Вы не можете прикреплять файлы к сообщениям
Вы не можете скачивать файлы