Женитьба (Ринат Фазлеев) [2010 г., музыкальная комедия, WEB-DLRip] Новокузнецкий драматический театр


 

[Цитировать]

Женитьба Название театра: Новокузнецкий драматический театр.
Год выпуска: 2010.
Жанр: музыкальная комедия.
Продолжительность: 01:56:09.
Режиссер: заслуженный артист России Ринат Фазлеев.
Действующие лица и исполнители:
Агафья Тихоновна - Илона Литвиненко,
Арина Пантелеймоновна - Людмила Адаменко,
Фекла Ивановна - Татьяна Кораблева,
Подколесин - Евгений Любицкий,
Кочкарев - Андрей Ковзель,
Яичница - Игорь Марганец,
Анучкин - Олег Лучшев,
Жевакин - Андрей Шмаков,
Степан - Евгений Лапшин,
Дуняша - Евгения Хитрина,
Поезжане - артисты театра танца "Ритм и мы".
О спектакле:
Особенность режиссёрского решения состоит в том, что обозначенное автором «совершенно невероятное событие в двух действиях» будет преобразовано в жанр музыкальной комедии. Это история о бесплодных усилиях организовать женитьбу без любви - как дань общественным условностям и напору «дружеского» окружения. Хочет ли Подколесин жениться или это невразумительная воля Кочкарёва, этого чёрта из табакерки, который втягивает приятеля в свой безумный энергетический вихрь? И каковы истинные пристрастия Агафьи Тихоновны, вечной «разборчивой невесты» на этом параде женихов? На эти и другие вопросы ответит нам спектакль по неувядаемой пьесе бессмертного классика русской литературы Николая Васильевича Гоголя, посвящённый его 200-летию.
Дополнительная информация:
Страна: Россия .
Автор: Николай Васильевич Гоголь.
Композитор: Станислав Кудряшов.
Сценография и костюмы: Роман Ватолкин.
Балетмейстер: Юлия Дьячкова.

О спектакле.
Релиз
Рип sharky.

Качество видео:...WEB-DLRip
Формат:.................AVI
Видео:..704x528 (1.33:1), 25 fps, XviD build 47 ~1585 kbps avg, 0.17 bit/pixel
Аудио:..48 kHz, AC3 Dolby Digital, 2/0 (L,R) ch, ~192 kbps

Отчет MI

Общее
Полное имя : Zhenit'ba_Novokuzneckij.DT.2010.XviD.WEB-DLRip.fenixclub.avi
Format : AVI
Format/Info : Audio Video Interleave
File size : 1.45 GiB
Duration : 1h 56mn
Overall bit rate : 1 788 Kbps
Writing application : VirtualDubMod 1.5.10.2 (build 2540/release)
Writing library : VirtualDubMod build 2540/release
Video
ID : 0
Format : MPEG-4 Visual
Format profile : Advanced Simple@L5
Format settings, BVOP : 1
Format settings, QPel : No
Format settings, GMC : No warppoints
Format settings, Matrix : Default (H.263)
Codec ID : XVID
Codec ID/Hint : XviD
Duration : 1h 56mn
Bit rate : 1 586 Kbps
Width : 704 pixels
Height : 528 pixels
Display aspect ratio : 4:3
Frame rate : 25.000 fps
Color space : YUV
Chroma subsampling : 4:2:0
Bit depth : 8 bits
Scan type : Progressive
Compression mode : Lossy
Bits/(Pixel*Frame) : 0.171
Stream size : 1.29 GiB (89%)
Writing library : XviD 1.2.0.dev47 (UTC 2006-11-01)
Audio
ID : 1
Format : AC-3
Format/Info : Audio Coding 3
Mode extension : CM (complete main)
Format settings, Endianness : Big
Codec ID : 2000
Duration : 1h 56mn
Bit rate mode : Constant
Bit rate : 192 Kbps
Channel(s) : 2 channels
Channel positions : Front: L R
Sampling rate : 48.0 KHz
Bit depth : 16 bits
Compression mode : Lossy
Stream size : 160 MiB (11%)
Alignment : Split accross interleaves
Interleave, duration : 40 ms (1.00 video frame)
Interleave, preload duration : 500 ms.

Скриншоты


Альтернативный хост





Показать сообщения:    

Текущее время: 07-Дек 13:40

Часовой пояс: UTC + 3


Вы не можете начинать темы
Вы не можете отвечать на сообщения
Вы не можете редактировать свои сообщения
Вы не можете удалять свои сообщения
Вы не можете голосовать в опросах
Вы не можете прикреплять файлы к сообщениям
Вы не можете скачивать файлы