Плутни Скапена (Татьяна Захарова) [2010 г., трагифарс, WEB-DLRip] Новокузнецкий драматический театр


 

[Цитировать]

Плутни Скапена Название театра: Новокузнецкий драматический театр.
Год выпуска: 2010.
Жанр: трагифарс.
Продолжительность: 02:01:27.
Режиссер: Татьяна Захарова (Санкт-Петербург).
Действующие лица и исполнители:
Скапен - Андрей Ковзель,
Аргант - Евгений Любицкий,
Жеронт - Артур Левченко,
Октав - Александр Коробов,
Гиацинта - Полина Зуева,
Леандр - Андрей Грачев,
Зербенетта - Мария Захарова,
Нерина - Илона Литвиненко,
Кормилица Зербинетты - Наталья Каллерт,
Карл - Котин Евгений.
О спектакле:
Пьесу «Плутни Скапена» великий французский комедиограф Мольер написал в 1671 году, за 2 года до смерти. Этот факт послужил режиссёру Татьяне Захаровой основанием для создания дополнительной сюжетной канвы спектакля. Основной конфликт — конфликт между художником и его творением. Умирающий Мольер и Скапен в спектакле — одно лицо. Чтобы бежать, спастись от смерти, Мольер уходит к своим персонажам. Он как бы создаёт на глазах зрителя искромётную историю о том, как Скапен помогает двум молодым людям — Октаву и Леандру — перехитрить их отцов в сложной борьбе за возлюбленных. Скапен, слуга Леандра, с помощью остроумных и весёлых проделок побеждает планы двух отцов — Арганта и Жеронта — женить своих сыновей по расчёту. Когда влюблённые соединились, и уже близился счастливый финал, бедняга Скапен шел мимо стройки, и ему на голову упал молоток. Когда перевязанного Скапена внесли, он усердно корчил из себя умирающего и молил Арганта с Жеронтом перед смертью простить все причиненное им зло. Его, разумеется, простили. Однако едва всех позвали к столу, Скапен передумал умирать и присоединился к праздничной трапезе. Спектакль соединяет в себе яркую театральность и жизненную правду, заразительный юмор и глубокие размышления о человеческих судьбах, любви и творчестве.
Дополнительная информация:
Страна: Россия .
Автор: Жан-Батист Мольер.
Художник: Юлдаш Нурматов.
Балетмейстер: Светлана Скосырская (Тюмень).

О спектакле.

Еще постер

Релиз
Рип sharky.

Качество видео:...WEB-DLRip
Формат:.................AVI
Видео:..704x528 (1.33:1), 25 fps, XviD build 47 ~1508 kbps avg, 0.16 bit/pixel
Аудио:..48 kHz, AC3 Dolby Digital, 2/0 (L,R) ch, ~192 kbps

Отчет MI

Общее
Полное имя : Plutni.Skapena_Novokuzneckij.DT.2010.XviD.WEB-DLRip.fenixclub.avi
Format : AVI
Format/Info : Audio Video Interleave
File size : 1.45 GiB
Duration : 2h 1mn
Overall bit rate : 1 710 Kbps
Writing application : VirtualDubMod 1.5.10.2 (build 2540/release)
Writing library : VirtualDubMod build 2540/release
Video
ID : 0
Format : MPEG-4 Visual
Format profile : Advanced Simple@L5
Format settings, BVOP : 1
Format settings, QPel : No
Format settings, GMC : No warppoints
Format settings, Matrix : Default (H.263)
Codec ID : XVID
Codec ID/Hint : XviD
Duration : 2h 1mn
Bit rate : 1 509 Kbps
Width : 704 pixels
Height : 528 pixels
Display aspect ratio : 4:3
Frame rate : 25.000 fps
Color space : YUV
Chroma subsampling : 4:2:0
Bit depth : 8 bits
Scan type : Progressive
Compression mode : Lossy
Bits/(Pixel*Frame) : 0.162
Stream size : 1.28 GiB (88%)
Writing library : XviD 1.2.0.dev47 (UTC 2006-11-01)
Audio
ID : 1
Format : AC-3
Format/Info : Audio Coding 3
Mode extension : CM (complete main)
Format settings, Endianness : Big
Codec ID : 2000
Duration : 2h 1mn
Bit rate mode : Constant
Bit rate : 192 Kbps
Channel(s) : 2 channels
Channel positions : Front: L R
Sampling rate : 48.0 KHz
Bit depth : 16 bits
Compression mode : Lossy
Stream size : 167 MiB (11%)
Alignment : Split accross interleaves
Interleave, duration : 40 ms (1.00 video frame)
Interleave, preload duration : 500 ms.

Скриншоты


Альтернативный хост





Показать сообщения:    

Текущее время: 10-Дек 19:43

Часовой пояс: UTC + 3


Вы не можете начинать темы
Вы не можете отвечать на сообщения
Вы не можете редактировать свои сообщения
Вы не можете удалять свои сообщения
Вы не можете голосовать в опросах
Вы не можете прикреплять файлы к сообщениям
Вы не можете скачивать файлы