Зеленая зона (Сергей Афанасьев) [2010 г., Комедия, TVRip] Новосибирский драматический театр под руководством Сергея Афанасьева


 

[Цитировать]

Зеленая зона Название театра: Новосибирский драматический театр под руководством Сергея Афанасьева.
Год выпуска: 2010.
Жанр: Комедия.
Продолжительность: 02:14:11.
Режиссер: заслуженный деятель искусств России Сергей Афанасьев.
Действующие лица и исполнители:
Толя Гущин - Павел Поляков,
Прохор Пасечник - заслуженный артист России Сергей Новиков,
Паня, его жена - Ирина Денисова,
Володя, их сын - Артем Свиряков,
Максим Корнеев - заслуженный артист России Николай Соловьев,
Клава Горохова, его жена - Ирина Ефимова,
Борис, её сын - Александр Туровинин,
Нина Дмитриевна Носкова - Марина Александрова,
Владислав Павлович, её сожитель - Константин Ярлыков,
Валя Лебедева, по прозвищу Лебедина - Светлана Галкина,
Николай, её муж - Владислав Шевчук,
Шура Салова - заслуженная артистка России Зоя Терехова,
Лида, её внучка - Мария Филиппова,
Тёма - Артем Голищев.
О спектакле:
"Зеленая зона" - спектакль о жизни людей, в которых мы узнаем самих себя. Искренний, пронзительный, смешной спектакль о жизни, в которой есть место радости и горю, слезам и смеху.
Время действия - середина пятидесятых, место действия - барак в подмосковном поселке. Жители барака так давно живут в нем, что стали одной семьей. И вот они узнают, что скоро их переселят в новую пятиэтажку...

Дополнительная информация:
Страна: Россия .
Выпущено: Культура.рф.
Автор: Михаил Зуев.
Сценография и костюмы: Дмитрий Гребенкин.
Художник-гример: Елена Хабарова.
Художник по свету: Сергей Барсуков.
Музыкальное оформление: заслуженный деятель искусств России Сергей Афанасьев.
Премьера спектакля состоялась 02 марта 2001 года.

О спектакле.
Релиз

Качество видео:...TVRip
Формат:.................AVI
Видео:..704x528 (1.33:1), 25 fps, XviD MPEG-4 ~1420 kbps avg, 0.15 bit/pixel
Аудио:..44.100 kHz, MPEG Layer 3, 2 ch, ~128.00 kbps avg

Отчет MI

Общее
Полное имя : Zelenaya.zona_Novosibirskij.DT.2010.XviD.TVRip.fenixclub.avi
Format : AVI
Format/Info : Audio Video Interleave
File size : 1.46 GiB
Duration : 2h 14mn
Overall bit rate : 1 559 Kbps
Writing application : VirtualDubModRus 1.5.10.2 (build 2542/release)
Writing library : VirtualDub build 32842/release
Video
ID : 0
Format : MPEG-4 Visual
Format profile : Advanced Simple@L5
Format settings, BVOP : 2
Format settings, QPel : No
Format settings, GMC : No warppoints
Format settings, Matrix : Default (MPEG)
Muxing mode : Packed bitstream
Codec ID : XVID
Codec ID/Hint : XviD
Duration : 2h 14mn
Bit rate : 1 421 Kbps
Width : 704 pixels
Height : 528 pixels
Display aspect ratio : 4:3
Frame rate : 25.000 fps
Color space : YUV
Chroma subsampling : 4:2:0
Bit depth : 8 bits
Scan type : Progressive
Compression mode : Lossy
Bits/(Pixel*Frame) : 0.153
Stream size : 1.33 GiB (91%)
Writing library : XviD 64
Audio
ID : 1
Format : MPEG Audio
Format version : Version 1
Format profile : Layer 3
Mode : Joint stereo
Mode extension : MS Stereo
Codec ID : 55
Codec ID/Hint : MP3
Duration : 2h 14mn
Bit rate mode : Constant
Bit rate : 128 Kbps
Channel(s) : 2 channels
Sampling rate : 44.1 KHz
Compression mode : Lossy
Stream size : 123 MiB (8%)
Alignment : Split accross interleaves
Interleave, duration : 40 ms (1.00 video frame)
Interleave, preload duration : 500 ms
Writing library : LAME3.98

Скриншоты


Альтернативный хост





Показать сообщения:    

Текущее время: 07-Дек 11:34

Часовой пояс: UTC + 3


Вы не можете начинать темы
Вы не можете отвечать на сообщения
Вы не можете редактировать свои сообщения
Вы не можете удалять свои сообщения
Вы не можете голосовать в опросах
Вы не можете прикреплять файлы к сообщениям
Вы не можете скачивать файлы