Вы позабудете и Генриэтту... (Станислав Голодницкий) [2004 г., поэма любви, CamRip] Костромской муниципальный Камерный драматический театр под руководством Б. И. Голодницкого


 

[Цитировать]

Вы позабудете и Генриэтту... Название театра: Костромской муниципальный Камерный драматический театр под руководством Б. И. Голодницкого.
Год выпуска: 2004.
Жанр: поэма любви.
Продолжительность: 01:59:43.
Режиссер-постановщик: Станислав Голодницкий.
В ролях: актеры театра.
О спектакле:
По мотивам пьесы Марины Цветаевой "Приключение".
...Последний час уходящего 1799 года. Джакомо Казанове 75. Его жизнь "катится к закату", но и теперь в глазах чувствуются "все семь смертных грехов", а он сам - "на тончайшем острие между величием и гротеском". На склоне лет служит библиотекарем замка Дуке в Богемии. В одиночестве разбирает "сугроб бумажек", и каждая из них, как весточка из далеких дней юности, молодости, зрелых лет, напоминающая о бурных, веселых и скорбных, забавных и печальных, разгульных и упоительных мгновениях бытия, а главное - о любви. О том высоком и великом чувстве, которое дает человеку истинный смысл жизни, возносит его над будничной повседневностью, серостью быта, мелочными расчетами, заражая своим жизнелюбием окружающих. Правда, все это в прошлом. Теперь - "Один-один-один - со всей любовью покончив"
Последний предновогодний час уходящего XVIII века становится для Казановы тем чудным мгновением, когда вновь "забередило" сердце, пробудив у Джакомо прежнюю галантность, игривость и резвость ума, пылкость страсти, рыцарское великодушие и благородство.
Марина Цветаева признавалась: Это не пьеса, это поэма, - просто любовь: тысячу первое объяснение в любви Казанове".

Дополнительная информация:
Страна: Россия .
Автор: Марина Цветаева.
Сценография, костюмы: Борис Голодницкий.

Релиз
Рип sharky.

Качество видео:...CamRip
Формат:.................AVI
Видео:..704x528 (1.33:1), 25 fps, DivX Codec 4.x ~1599 kbps avg, 0.17 bit/pixel
Аудио:..44.100 kHz, MPEG Layer 3, 2 ch, ~128.00 kbps avg

Отчет Media Info

General
Complete name : Vy.pozabudete.i.Genriettu_Kostromskoj.MKDT.2004.XviD.CamRip.fenixclub.avi
Format : AVI
Format/Info : Audio Video Interleave
File size : 1.45 GiB
Duration : 1h 59mn
Overall bit rate : 1 738 Kbps
Video
ID : 0
Format : MPEG-4 Visual
Format settings, BVOP : 1
Format settings, QPel : No
Format settings, GMC : No warppoints
Format settings, Matrix : Default (H.263)
Muxing mode : Packed bitstream
Codec ID : DX50
Codec ID/Hint : DivX 5
Duration : 1h 59mn
Bit rate : 1 600 Kbps
Width : 704 pixels
Height : 528 pixels
Display aspect ratio : 4:3
Frame rate : 25.000 fps
Color space : YUV
Chroma subsampling : 4:2:0
Bit depth : 8 bits
Scan type : Progressive
Compression mode : Lossy
Bits/(Pixel*Frame) : 0.172
Stream size : 1.34 GiB (92%)
Title : Video
Writing library : DivX 3013
Audio
ID : 1
Format : MPEG Audio
Format version : Version 1
Format profile : Layer 3
Codec ID : 55
Codec ID/Hint : MP3
Duration : 1h 59mn
Bit rate mode : Constant
Bit rate : 128 Kbps
Channel(s) : 2 channels
Sampling rate : 44.1 KHz
Compression mode : Lossy
Stream size : 110 MiB (7%)
Alignment : Split accross interleaves
Interleave, duration : 40 ms (1.00 video frame)
Interleave, preload duration : 500 ms
Title : Audio

Скриншоты


Альтернативный хост





Показать сообщения:    

Текущее время: 03-Дек 07:38

Часовой пояс: UTC + 3


Вы не можете начинать темы
Вы не можете отвечать на сообщения
Вы не можете редактировать свои сообщения
Вы не можете удалять свои сообщения
Вы не можете голосовать в опросах
Вы не можете прикреплять файлы к сообщениям
Вы не можете скачивать файлы