Счастливцев-Несчастливцев (Сергей Арцибашев) [2003, комедия, DVB-AVC] Театр Сатиры


 

[Цитировать]

Счастливцев-Несчастливцев
02.10.14 торрент обновлён, добавлена 2-я часть
Название театра: Театр Сатиры
Жанр: комедия
Год выпуска: 2002
Продолжительность: 00:56:33 + 01:00:51
Режиссёр: Сергей Арцибашев
В ролях: Несчастливцев - Александр Ширвиндт
Счастливцев - Михаил Державин
Бодаенко – Спартак Мишулин
Милонов - Борис Тенин
Марина – Алена Яковлева
Алик - Андрей Барило
Миля - Михаил Владимиров
Звягинцева - Нина Феклисова
Николаев - Николай Пеньков
Милиционер - Борис Тенин
Поклонница - Мария Голубкина
Описание: Герои пьесы Александра Николаевича Островского "Лес" перенесены Гориным в наши дни. Державин и Ширвиндт играют двух актеров - трагика и комика. Жизнь театральная переплетается с жизнью реальной. Артисты, не скрывая, играют сами себя. Все ложится идеально: и амплуа (комик-трагик), и веселая репутация любимцев публики. И даже манера общения друг с другом, нажитая в эстрадных дуэтах, где Ширвиндт - усталый умник, а Державин - милый простак. Пьеса писалась именно на них человеком, которого связывала с артистами личная дружба.
Доп. информация:
Запись потока *.ts со спутника ABS-2, 75° в.д., ремукс в *.mkv программой VideoReDo.
Качество видео: DVB-AVC
Формат видео: MKV
Видео: Advanced Video Codec, 720(768)x576 (4:3), 25,000 кадров/сек, 3087 Кбит/сек
Аудио: MPEG Audio, 48,0 КГц, 192 Кбит/сек, 2 канала

MediaInfo

Общее
Уникальный идентификатор : 292894321578329977771108827262207746586 (0xDC5964FA7852766CB39BA5D73D91621A)
Полное имя : E:\Torrent\СЧАСТЛИВЦЕВ НЕСЧАСТЛИВЦЕВ\СЧАСТЛИВЦЕВ НЕСЧАСТЛИВЦЕВ 1 (Kultura 75).mkv
Формат : Matroska
Версия формата : Version 2
Размер файла : 1,32 Гбайт
Продолжительность : 56 м.
Общий поток : 3346 Кбит/сек
Программа кодирования : Lavf52.64.2
Библиотека кодирования : Lavf52.64.2
Видео
Идентификатор : 1
Формат : AVC
Формат/Информация : Advanced Video Codec
Профиль формата : High@L3.0
Параметр CABAC формата : Да
Параметр ReFrames формата : 4 кадра
Параметр GOP формата : M=4, N=32
Идентификатор кодека : V_MPEG4/ISO/AVC
Продолжительность : 56 м.
Битрейт : 3087 Кбит/сек
Ширина : 720 пикселей
Высота : 576 пикселей
Соотношение сторон : 4:3
Соотношение сторон в оригинале : 4:3
Режим частоты кадров : Постоянный
Частота кадров : 25,000 кадров/сек
Стандарт вещания : PAL
Цветовое пространство : YUV
Субдискретизация насыщенности : 4:2:0
Битовая глубина : 8 бит
Тип развёртки : MBAFF
Бит/(Пиксели*Кадры) : 0.298
Размер потока : 1,22 Гбайт (92%)
Default : Да
Forced : Нет
Аудио
Идентификатор : 2
Формат : MPEG Audio
Версия формата : Version 1
Профиль формата : Layer 2
Режим : Joint stereo
Расширение режима : Intensity Stereo + MS Stereo
Идентификатор кодека : A_MPEG/L2
Идентификатор кодека/Подсказка : MP2
Продолжительность : 56 м.
Вид битрейта : Постоянный
Битрейт : 192 Кбит/сек
Каналы : 2 канала
Частота : 48,0 КГц
Метод сжатия : С потерями
Размер потока : 77,7 Мбайт (6%)
Язык : English
Default : Да
Forced : Нет
Общее
Уникальный идентификатор : 228415453464841500470821128842843903576 (0xABD7375630192E12F5D8F6A4CBA1D658)
Полное имя : E:\Torrent\СЧАСТЛИВЦЕВ НЕСЧАСТЛИВЦЕВ\СЧАСТЛИВЦЕВ НЕСЧАСТЛИВЦЕВ 2 (Kultura 75).mkv
Формат : Matroska
Версия формата : Version 2
Размер файла : 1,42 Гбайт
Продолжительность : 1 ч. 0 м.
Общий поток : 3345 Кбит/сек
Программа кодирования : Lavf52.64.2
Библиотека кодирования : Lavf52.64.2
Видео
Идентификатор : 1
Формат : AVC
Формат/Информация : Advanced Video Codec
Профиль формата : High@L3.0
Параметр CABAC формата : Да
Параметр ReFrames формата : 4 кадра
Идентификатор кодека : V_MPEG4/ISO/AVC
Продолжительность : 1 ч. 0 м.
Битрейт : 3087 Кбит/сек
Ширина : 720 пикселей
Высота : 576 пикселей
Соотношение сторон : 4:3
Соотношение сторон в оригинале : 4:3
Режим частоты кадров : Постоянный
Частота кадров : 25,000 кадров/сек
Стандарт вещания : PAL
Цветовое пространство : YUV
Субдискретизация насыщенности : 4:2:0
Битовая глубина : 8 бит
Тип развёртки : MBAFF
Бит/(Пиксели*Кадры) : 0.298
Размер потока : 1,31 Гбайт (92%)
Default : Да
Forced : Нет
Аудио
Идентификатор : 2
Формат : MPEG Audio
Версия формата : Version 1
Профиль формата : Layer 2
Режим : Joint stereo
Расширение режима : Intensity Stereo + MS Stereo
Идентификатор кодека : A_MPEG/L2
Идентификатор кодека/Подсказка : MP2
Продолжительность : 1 ч. 0 м.
Вид битрейта : Постоянный
Битрейт : 192 Кбит/сек
Каналы : 2 канала
Частота : 48,0 КГц
Метод сжатия : С потерями
Размер потока : 83,6 Мбайт (6%)
Язык : English
Default : Да
Forced : Нет

Скриншот с названием постановки

Скриншоты




Показать сообщения:    

Текущее время: 05-Дек 03:27

Часовой пояс: UTC + 3


Вы не можете начинать темы
Вы не можете отвечать на сообщения
Вы не можете редактировать свои сообщения
Вы не можете удалять свои сообщения
Вы не можете голосовать в опросах
Вы не можете прикреплять файлы к сообщениям
Вы не можете скачивать файлы