Безотцовщина (Евгений Арье) [2005 г., комедия, WEB-DLRip] Дом-музей А. П. Чехова, Ялта


 

[Цитировать]

Безотцовщина Название театра: Дом-музей А. П. Чехова, Ялта.
Год выпуска: 2005.
Жанр: комедия.
Продолжительность: 01:53:50.
Режиссеры: Сергей Голомазов, заслуженная артистка Армянской ССР Вера Бабичева.
В ролях:
Сергей Голомазов, Мария Соловьёва, Анна Тюряева, Инна Аслиян, Олеся Быкодёрова, Андрей Оганян, Борис Покровский, Олег Осипов, Сергей Посельский, Артём Федотов, Алексей Дякин, Александр Андриевич, Антонина Шеина, Мариэтта Цигаль-Полищук, Евгения Савкина, Марфа Кольцова.
О спектакле:
«Безотцовщина» (также известна под названиями «Пьеса без названия» и «Платонов») — первая пьеса Антона Павловича Чехова, написанная им в 18-летнем возрасте (во время учёбы в гимназии). Состоит из четырёх действий.
Пьеса обнаружена и опубликована через 19 лет после смерти автора. Название пьесы восстанавлено по письму Александра Чехова от 14 октября 1878 года. Большинство постановок прошло с названием «Платонов».

Дополнительная информация:
Страна: Россия .
Автор пьесы: Антон Павлович Чехов.
Режиссер-постановщик: Сергей Голомазов.
Режиссёр-педагог: заслуженная артистка Армянской ССР Вера Бабичева.
Релиз
Рип sharky.

Качество видео:...WEB-DLRip
Формат:.................AVI
Видео:..704x528 (1.33:1), 25 fps, DivX Codec 4.x ~1690 kbps avg, 0.18 bit/pixel
Аудио:..44.100 kHz, MPEG Layer 3, 2 ch, ~128.00 kbps avg

Отчет Media Info

General
Complete name : Bezotcovwina_Dom.muzej.4ehova.Yalta.2005.DivX.WEB-DLRip.fenixclub.avi
Format : AVI
Format/Info : Audio Video Interleave
File size : 1.45 GiB
Duration : 1h 53mn
Overall bit rate : 1 828 Kbps
Video
ID : 0
Format : MPEG-4 Visual
Format settings, BVOP : 1
Format settings, QPel : No
Format settings, GMC : No warppoints
Format settings, Matrix : Default (H.263)
Muxing mode : Packed bitstream
Codec ID : DX50
Codec ID/Hint : DivX 5
Duration : 1h 53mn
Bit rate : 1 691 Kbps
Width : 704 pixels
Height : 528 pixels
Display aspect ratio : 4:3
Frame rate : 25.000 fps
Color space : YUV
Chroma subsampling : 4:2:0
Bit depth : 8 bits
Scan type : Progressive
Compression mode : Lossy
Bits/(Pixel*Frame) : 0.182
Stream size : 1.34 GiB (92%)
Title : Video
Writing library : DivX 3013
Audio
ID : 1
Format : MPEG Audio
Format version : Version 1
Format profile : Layer 3
Codec ID : 55
Codec ID/Hint : MP3
Duration : 1h 53mn
Bit rate mode : Constant
Bit rate : 128 Kbps
Channel(s) : 2 channels
Sampling rate : 44.1 KHz
Compression mode : Lossy
Stream size : 104 MiB (7%)
Alignment : Split accross interleaves
Interleave, duration : 40 ms (1.00 video frame)
Interleave, preload duration : 500 ms
Title : Audio

Скриншоты


Альтернативный хост





Показать сообщения:    

Текущее время: 09-Дек 14:35

Часовой пояс: UTC + 3


Вы не можете начинать темы
Вы не можете отвечать на сообщения
Вы не можете редактировать свои сообщения
Вы не можете удалять свои сообщения
Вы не можете голосовать в опросах
Вы не можете прикреплять файлы к сообщениям
Вы не можете скачивать файлы