Моцарт и Сальери. Театральные пародии [2003 г., пародия, CAMRip] Российская академия театрального искусства - ГИТИС


 

[Цитировать]

Моцарт и Сальери. Театральные пародииНазвание театра: Российская академия театрального искусства - ГИТИС.
Год выпуска: 2003.
Жанр: пародия.
Продолжительность: 01:04:13.
Режиссер: Сергей Посельский.
Режиссер-педагог: Вера Бабичева.
Художественный руководитель постановки: Сергей Голомазов.
В ролях:
Артём Федотов, Сергей Посельский, Сергей Губанов, Дмитрий Шаракоис, студенты курса.
Описание:
Мастерская Сергея Голомазова, режиссёрский факультет РАТИ-ГИТИС.
Пародии учеников Голомазова на знаменитых российских театральных режиссеров.

Дополнительная информация:
Страна: Россия .

Релиз
Рип sharky.

Качество видео:...CAMRip
Формат:.................AVI
Видео:..704x528 (1.33:1), 25 fps, DivX Codec 4.x ~1484 kbps avg, 0.16 bit/pixel
Аудио:..44.100 kHz, MPEG Layer 3, 2 ch, ~128.00 kbps avg

Отчет Media Info

Общее
Полное имя : Mocart.i.Sol'eri.Teatral'nye.parodii_RATI.2003.DivX.CamRip.fenixclub.avi
Формат : AVI
Формат/Информация : Audio Video Interleave
Размер файла : 745 Мбайт
Продолжительность : 1 ч. 4 м.
Общий поток : 1623 Кбит/сек
Видео
Идентификатор : 0
Формат : MPEG-4 Visual
Параметр BVOP формата : Да
Параметр QPel формата : Нет
Параметр GMC формата : Без точки перехода
Параметр матрицы формата : Default (H.263)
Идентификатор кодека : DX50
Идентификатор кодека/Подсказка : DivX 5
Продолжительность : 1 ч. 4 м.
Битрейт : 1485 Кбит/сек
Ширина : 704 пикселя
Высота : 528 пикселей
Соотношение сторон : 4:3
Частота кадров : 25,000 кадров/сек
Цветовое пространство : YUV
Субдискретизация насыщенности : 4:2:0
Битовая глубина : 8 бит
Тип развёртки : Прогрессивная
Метод сжатия : С потерями
Бит/(Пиксели*Кадры) : 0.160
Размер потока : 682 Мбайт (92%)
Заголовок : Video
Библиотека кодирования : DivX 3013
Аудио
Идентификатор : 1
Формат : MPEG Audio
Версия формата : Version 1
Профиль формата : Layer 3
Идентификатор кодека : 55
Идентификатор кодека/Подсказка : MP3
Продолжительность : 1 ч. 4 м.
Вид битрейта : Постоянный
Битрейт : 128 Кбит/сек
Каналы : 2 канала
Частота : 44,1 КГц
Метод сжатия : С потерями
Размер потока : 58,8 Мбайт (8%)
Выравнивание : Разделение по промежуткам
Продолжительность промежутка : 40 мс. (1,00 видеокадр)
Время предзагрузки промежутка : 500 мс.
Заголовок : Audio

Скриншоты


Альтернативный хост





Показать сообщения:    

Текущее время: 08-Дек 21:10

Часовой пояс: UTC + 3


Вы не можете начинать темы
Вы не можете отвечать на сообщения
Вы не можете редактировать свои сообщения
Вы не можете удалять свои сообщения
Вы не можете голосовать в опросах
Вы не можете прикреплять файлы к сообщениям
Вы не можете скачивать файлы