Алиса в Зазеркалье (Иван Поповски) [2012 г., Драма, TVRip] Московский театр "Мастерская Петра Фоменко"


 

[Цитировать]

Алиса в ЗазеркальеНазвание театра: Московский театр "Мастерская Петра Фоменко".
Год выпуска: 2012 .
Жанр: Драма.
Продолжительность: 02:27:56.
Режиссеры: Иван Поповски, Ирина Доценко.
Действующие лица и исполнители:
Алиса - Вера Строкова,
Белый кролик - Елена Ворончихина,
Тигровая Лилия - Мария Андреева,
Маргаритка - Елена Ворончихина,
Фиалка - Моника Санторо,
Роза - Серафима Огарева,
Дуб - Дмитрий Захаров,
Молоденький Шпорник - Николай Орловский,
Черная королева - Наджа Мэр,
Кондуктор - Юрий Буторин,
Машинист - Игорь Войнаровский,
Комар - Иван Вакуленко,
Лань - Наджа Мэр,
Труляля - Игорь Войнаровский,
Траляля - Дмитрий Рудков,
Грифон (Мифическое существо с головой и крыльями орла и телом льва) - Дмитрий Смирнов,
Черепаха Квази (Придуманная Кэрроллом черепаха с телячьей головой, хвостом и копытами на задних ногах) - Юрий Буторин,
Черный король - Иван Вакуленко, Игорь Войнаровский,
Паук - Дмитрий Рудков, Дмитрий Захаров,
Белая королева (Овца) - Моника Санторо,
Балет Белой королевы - Юрий Буторин, Иван Вакуленко, Игорь Войнаровский,
Шалтай-Болтай - Василий Фирсов,
Белый король - Дмитрий Смирнов,
За и Атс - Юрий Буторин,
Болванс Чик - Николай Орловский,
Минутка - Дмитрий Захаров,
Единорог - Дмитрий Рудков,
Лев - Игорь Войнаровский,
Черный Рыцарь - Василий Фирсов,
Черный конь - Юрий Буторин,
Белый Рыцарь - Иван Вакуленко,
Белый конь - Николай Орловский,
Существо с Длинным Клювом - Василий Метлин,
Лягушонок - Николай Орловский,
асилА - Нина Фролова,
А также:
Шахматные фигуры, Пассажиры поезда, Зазеркальные Насекомые, Лес Забвения, Устрицы, Овцы, Барабанщики.

Ворон: Михаил Агуреев, Виталий Метлин, Денис Шалаев.
Спектакль вели: Ольга Лопач, Юлия Степанова.
О спектакле:
Спектакль по сказке известного английского писателя Льюиса Кэрролла о девочке Алисе, которая попала в Зазеркалье.
В постановке "Мастерской Петра Фоменко" "Алисе" попытались вернуть дух детства, воплотить на сцене мир грез маленькой девочки, мир удивительный, яркий, полный забавных бессмыслиц, веселой чепухи, мир, всегда готовый к головокружительным метаморфозам.

Дополнительная информация:
Страна: Россия .
Выпущено: © ООО "Альма Матер", © Правительство Москвы.
Автор сценической композиции и режиссер: Иван Поповски, при участии фантазий актеров Студии.
Автор: Льюис Кэрролл.
Перевод Нины Демуровой, а также используются фрагменты переводов "Алисы в Стране чудес" Бориса Заходера, "Алисы в Зазеркалье" Леонида Яхнина.
Композитор: Николай Орловский.
Союз художников: Вадим Воля, Константин Лебедев, Владимир Максимов, Юлия Михеева, Ольга-Мария Тумакова, Иван Поповски.
Художник по костюмам: Ангелина Атлагич (Сербия).
Художник по свету: Владислав Фролов.
Видеопроекции: Вадим Воля, Юлия Михеева, Ольга-Мария Тумакова.
Хореограф: Олег Глушков.
Музыканты: Анастасия Баева, Иван Вакуленко, Дмитрий Захаров, Николай Орловский, Моника Санторо, Елена Слободчикова, Дмитрий Смирнов.
Музыкальный руководитель: Марина Раку.
Педагог по речи: Вера Камышникова.
Мастер по тростевым куклам и светящимся объектам: Ирина Бачурина.
Конструкция Ворона: Рафаэль Циталашвили.
Музыкальная тема "Летящего поезда": Кирилл Пирогов.
Художественный руководитель театра: заслуженный деятель искусств РСФСР, народный артист России Петр Фоменко.
Также в спектакле звучат: мелодии английских народных песенок "Here we go round the mullbarry bush", "Hampty-Dumpty", "Rock-a-bye Baby".
В сценической композиции используется: текст английской народной песенки "Котауси-Мауси" в переводе Корнея Чуковского, фрагмент поэмы Льюиса Кэролла "Охота снаружи" в переводе Григория Кружкова, фрагмент стихотворения "Мышки" Мирослава Валека в переводе Григория Кружкова и "Не знаю кто" Генриха Сапгира.
Премьера спектакля состоялась 19 июня 2010 г.
Режиссер телеверсии: Ирина Доценко.
Ведущий оператор: Сергей Корягин.

О спектакле.
Релиз

Качество видео:...TVRip
Формат:.................AVI
Видео:..704x400 (1.76:1), 25 fps, XviD MPEG-4 ~1272 kbps avg, 0.18 bit/pixel
Аудио:..48 kHz, MPEG Layer 3, 2 ch, ~128.00 kbps avg

Отчет MI

Общее
Полное имя : Alisa.v.Zazerkal'e_Masterskaya.Petra.Fomenko.2012.XviD.TVRip.fenixclub.avi
Format : AVI
Format/Info : Audio Video Interleave
File size : 1.46 GiB
Duration : 2h 27mn
Overall bit rate : 1 411 Kbps
Writing application : VirtualDubModRus 1.5.10.2 (build 2542/release)
Writing library : VirtualDub build 34753/release
Video
ID : 0
Format : MPEG-4 Visual
Format profile : Advanced Simple@L5
Format settings, BVOP : 2
Format settings, QPel : No
Format settings, GMC : No warppoints
Format settings, Matrix : Default (H.263)
Muxing mode : Packed bitstream
Codec ID : XVID
Codec ID/Hint : XviD
Duration : 2h 27mn
Bit rate : 1 273 Kbps
Width : 704 pixels
Height : 400 pixels
Display aspect ratio : 16:9
Frame rate : 25.000 fps
Color space : YUV
Chroma subsampling : 4:2:0
Bit depth : 8 bits
Scan type : Progressive
Compression mode : Lossy
Bits/(Pixel*Frame) : 0.181
Stream size : 1.32 GiB (90%)
Writing library : XviD 1.2.1 (UTC 2008-12-04)
Audio
ID : 1
Format : MPEG Audio
Format version : Version 1
Format profile : Layer 3
Mode : Joint stereo
Mode extension : MS Stereo
Codec ID : 55
Codec ID/Hint : MP3
Duration : 2h 27mn
Bit rate mode : Constant
Bit rate : 128 Kbps
Channel(s) : 2 channels
Sampling rate : 48.0 KHz
Compression mode : Lossy
Stream size : 135 MiB (9%)
Alignment : Split accross interleaves
Interleave, duration : 40 ms (1.00 video frame)
Interleave, preload duration : 500 ms

Скриншоты

Альтернативный хост




Показать сообщения:    

Текущее время: 18-Янв 00:23

Часовой пояс: UTC + 3


Вы не можете начинать темы
Вы не можете отвечать на сообщения
Вы не можете редактировать свои сообщения
Вы не можете удалять свои сообщения
Вы не можете голосовать в опросах
Вы не можете прикреплять файлы к сообщениям
Вы не можете скачивать файлы