Тартюф (Павел Сафонов) [2012, комедия, TVRip] Московский драматический театр на Малой Бронной


 

[Цитировать]

Тартюф
Московский драматический театр на Малой Бронной
Жанр: комедия
Год выпуска: 2012
Продолжительность: 02:20:49
Режиссёр: Павел Сафонов
В ролях:
Тартюф - Виктор Сухоруков
Оргон - Александр Самойленко
Г-жа Пернель - Анна Антоненко-Луконина
Эльмира - Ольга Ломоносова
Дамис - Дмитрий Гурьянов
Мариана - Екатерина Дубакина
Валер - Дмитрий Сердюк
Клеант - Владимир Яворский
Дорина - Агриппина Стеклова
Г- н Лояль - Егор Сачков
Офицер - Егор Сачков
Описание: Автор пьесы Жан-Батист Мольер.
Смешная и поучительная комедия о святоше, оказавшемся вруном.
Глава семейства и хозяин дома Оргон приглашает к себе Тартюфа. В его глазах этот нищий предстает настоящим чудом, добрым, глубоко верующим человеком. Члены семьи начинают подозревать, что этот святоша не так прост, как кажется. Оргон не слушает никого из них, обвиняя и оскорбляя всех членов семьи. Истина открывается ему, когда хитрый Тартюф решает оставить своего покровителя в дураках.
Релиз:
Семпл: https://www.mediafire.com/?b5y45xfrr1lbplb
Качество видео: TVRip
Формат видео: AVI
Видео: 640x368 (1.74:1), 25 fps, XviD MPEG-4 ~1352 kbps avg, 0.23 bit/pixel
Аудио: 48 kHz, MPEG Layer 3, 2 ch, ~128.00 kbps avg

MediaInfo

Общее
Полное имя : Tartyuf.2012.TVRip.fenixclub.avi
Формат : AVI
Формат/Информация : Audio Video Interleave
Размер файла : 1,47 Гбайт
Продолжительность : 2 ч. 20 м.
Общий поток : 1491 Кбит/сек
Программа кодирования : VirtualDubModRus 1.5.10.2 (build 2542/release)
Библиотека кодирования : VirtualDub build 32842/release
Видео
Идентификатор : 0
Формат : MPEG-4 Visual
Профиль формата : Advanced Simple@L5
Параметр BVOP формата : 2
Параметр QPel формата : Нет
Параметр GMC формата : Без точки перехода
Параметр матрицы формата : Default (MPEG)
Режим смешивания : Сжатый битовый поток
Идентификатор кодека : XVID
Идентификатор кодека/Подсказка : XviD
Продолжительность : 2 ч. 20 м.
Битрейт : 1353 Кбит/сек
Ширина : 640 пикселей
Высота : 368 пикселей
Соотношение сторон : 1,739
Частота кадров : 25,000 кадров/сек
Цветовое пространство : YUV
Субдискретизация насыщенности : 4:2:0
Битовая глубина : 8 бит
Тип развёртки : Прогрессивная
Метод сжатия : С потерями
Бит/(Пиксели*Кадры) : 0.230
Размер потока : 1,33 Гбайт (91%)
Библиотека кодирования : XviD 64
Аудио
Идентификатор : 1
Формат : MPEG Audio
Версия формата : Version 1
Профиль формата : Layer 3
Режим : Joint stereo
Расширение режима : MS Stereo
Идентификатор кодека : 55
Идентификатор кодека/Подсказка : MP3
Продолжительность : 2 ч. 20 м.
Вид битрейта : Постоянный
Битрейт : 128 Кбит/сек
Каналы : 2 канала
Частота : 48,0 КГц
Метод сжатия : С потерями
Размер потока : 129 Мбайт (9%)
Выравнивание : Разделение по промежуткам
Продолжительность промежутка : 40 мс. (1,00 видеокадр)
Время предзагрузки промежутка : 500 мс.

Скриншот с названием постановки

Скриншоты





Показать сообщения:    

Текущее время: 11-Дек 05:22

Часовой пояс: UTC + 3


Вы не можете начинать темы
Вы не можете отвечать на сообщения
Вы не можете редактировать свои сообщения
Вы не можете удалять свои сообщения
Вы не можете голосовать в опросах
Вы не можете прикреплять файлы к сообщениям
Вы не можете скачивать файлы