Король Лир (Юрий Бутусов, Виктор Безега) [2009 г., драма, SATRip] Театр «Сатирикон» имени Аркадия Райкина


 

[Цитировать]

Король Лир Название театра: Театр «Сатирикон» имени Аркадия Райкина.
Год выпуска: 2009.
Жанр: драма.
Продолжительность: 02:29:12.
Режиссеры: Юрий Бутусов, Виктор Безега.
Действующие лица и исполнители:
Лир, король Британии - народный артист России Константин Райкин,
Король Французский - Артём Осипов,
Герцог Бургундский - Яков Ломкин,
Герцог Корнуэльский - Константин Третьяков,
Герцог Альбанский - заслуженный артист России Владимир Большов,
Граф Кент - Тимофей Трибунцев,
Граф Глостер - заслуженный артист России Денис Суханов,
Эдгар, сын Глостера - Артём Осипов,
Эдмонд, побочный сын Глостера - Максим Аверин,
Шут - Елена Березнова,
Освальд, дворецкий - Яков Ломкин,
Гонерилья, дочь Лира - Марина Дровосекова,
Регана, дочь Лира - заслуженная артистка России Агриппина Стеклова,
Корделия, дочь Лира - Марьяна Спивак.
О спектакле:
Не упрощая шекспировских смыслов и предлагая зрителю довольно сложную метафорическую структуру, Юрий Бутусов рассказывает историю, в которой распад семьи, распад страны, распад личности – всё связано друг с другом. Король Лир вообразил себя равным Богу – вот и раздал королевство дочерям, чтобы просто посмотреть, что из этого получится.
Дополнительная информация:
Страна: Россия .
Выпущено: Студия фондовых и архивных программ © ГТРК "Культура" .
Награды и номинации:
• 2007 - «Золотая Маска» - Национальная театральная премия Союза театральных деятелей Российской Федерации Константину Райкину за лучшую мужскую роль (сезон 2006-2007).
Автор: Уильям Шекспир.
Сценическая редакция театра.
Использованы переводы
Бориса Пастернака, Александра Дружинина, Б. Кетчера.
Режиссёр: Юрий Бутусов.
Художник: Александр Шишкин.
Балетмейстер: Николай Реутов.
Художник по свету: Анатолий Кузнецов.
Звукорежиссер: Сергей Лебедев.
Музыкальное оформление: Юрий Бутусов.
Премьера спектакля состоялась 6 октября 2006 года
Режиссёр телеверсии: Виктор Безега.
Оператор-постановщик: Владимир Иванов.

О спектакле.
Релиз
Рип lesik689.
Огромное спасибо Доброму человеку за предоставленый материал!!!

Качество видео:...SATRip
Формат:.................AVI
Видео:..688x400 (1.72:1), 25 fps, XviD MPEG-4 ~1774 kbps avg, 0.26 bit/pixel
Аудио:..48 kHz, AC3 Dolby Digital, 2/0 (L,R) ch, ~192 kbps

Отчет Media Info

General
Complete name : Korol'.Lir_Satirikon.2009.XviD.SATRip.fenixclub.avi
Формат : AVI
Формат/Информация : Audio Video Interleave
Профиль формата : OpenDML
Размер файла : 2,06 Гбайт
Продолжительность : 2 ч. 29 м.
Общий поток : 1974 Кбит/сек
Программа кодирования : VirtualDubMod 1.5.10.2 (build 2542/release)
Библиотека кодирования : VirtualDubMod build 2542/release
Видео
Идентификатор : 0
Формат : MPEG-4 Visual
Профиль формата : Advanced Simple@L5
Параметр BVOP формата : 2
Параметр QPel формата : Нет
Параметр GMC формата : Без точки перехода
Параметр матрицы формата : Default (MPEG)
Режим смешивания : Сжатый битовый поток
Идентификатор кодека : XVID
Идентификатор кодека/Подсказка : XviD
Продолжительность : 2 ч. 29 м.
Битрейт : 1769 Кбит/сек
Ширина : 688 пикселей
Высота : 400 пикселей
Соотношение сторон : 5:4
Соотношение сторон в оригинале : 1,720
Частота кадров : 25,000 кадров/сек
Цветовое пространство : YUV
Субдискретизация насыщенности : 4:2:0
Битовая глубина : 8 бит
Тип развёртки : Прогрессивная
Метод сжатия : С потерями
Бит/(Пиксели*Кадры) : 0.257
Размер потока : 1,84 Гбайт (90%)
Библиотека кодирования : XviD 64
Аудио
Идентификатор : 1
Формат : AC-3
Формат/Информация : Audio Coding 3
Расширение режима : CM (complete main)
Параметр Endianness формата : Big
Идентификатор кодека : 2000
Продолжительность : 2 ч. 29 м.
Вид битрейта : Постоянный
Битрейт : 192 Кбит/сек
Каналы : 2 канала
Расположение каналов : Front: L R
Частота : 48,0 КГц
Битовая глубина : 16 бит
Метод сжатия : С потерями
Размер потока : 205 Мбайт (10%)
Выравнивание : Соединение по промежуткам
Продолжительность промежутка : 40 мс. (1,00 видеокадр)
Время предзагрузки промежутка : 512 мс.

Скриншоты


Альтернативный хост





Показать сообщения:    

Текущее время: 10-Дек 17:46

Часовой пояс: UTC + 3


Вы не можете начинать темы
Вы не можете отвечать на сообщения
Вы не можете редактировать свои сообщения
Вы не можете удалять свои сообщения
Вы не можете голосовать в опросах
Вы не можете прикреплять файлы к сообщениям
Вы не можете скачивать файлы