Волки и овцы (Вениамин Цыганков, Феликс Глямшин) [1973 г., Комедия, SATRip] Государственный академический Малый театр


 

[Цитировать]

Волки и овцы (2 части)Название театра: Государственный академический Малый театр.
Год выпуска: 1973.
Жанр: Комедия.
Продолжительность: 01:35:10 + 01:17:16 (02:52:26).
Режиссеры: заслуженный артист РСФСР, заслуженный деятель искусств РСФСР Вениамин Цыганков, Феликс Глямшин.
В ролях:
Мурзавецкая - народная артистка СССР Елена Гоголева,
Мурзавецкий - заслуженный артист РСФСР Анатолий Торопов,
Глафира - народная артистка РСФСР Элина Быстрицкая,
Купавина - народная артистка РСФСР Ирина Ликсо,
Анфуса - народная артистка РСФСР Софья Фадеева,
Лыняев - народный артист СССР Николай Рыжов,
Беркутов - народный артист РСФСР Борис Телегин,
Чугунов - народный артист РСФСР Сергей Маркушев,
Горецкий - Виктор Борцов,
Павлин - заслуженный артист РСФСР Владимир Головин.
Описание:
Действие разворачивается в пределах нескольких дней в одном из российских провинциальных губернских городов в 1870-е годы. Мурзавецкая, владелица большого, но уже порядком расстроенного имения, забрала большую власть в губернии. Ее авторитет непререкаем. Она слывет праведницей, блюстительницей нравов, всячески подчеркивает свою отрешенность от всего земного, но за мнимым благонравием и кротостью скрывается наглая напористая авантюристка. Чтобы поправить свои денежные дела, она задумывает прибрать к рукам наследство богатой, опекаемой ею вдовы Евлампии Купавиной и пристроить своего беспутного племянника Аполлона. Она использует и подложные письма, и фальшивые векселя... Но на богатство Купавиной слетаются и другие охотники, и их немало. А побеждает циничный столичный делец из Петербурга Беркутов, сосед Купавиной по имению.
Дополнительная информация:
Страна: СССР .
Выпущено: Государственный академический Малый театр, Творческое объединение "Экран".
Автор: Василий Ливанов.
Режиссер-постановщик спектакля: заслуженный артист РСФСР, заслуженный деятель искусств РСФСР Вениамин Цыганков.
Режиссер телеверсии: Феликс Глямшин.
Оператор-постановщик: Валерий Шаров.
Художник: Юрий Углов.


Релиз

Качество: SATRip
Формат: AVI
Видео: 704x528 (1.33:1), 25 fps, XviD MPEG-4 ~1642 kbps avg, 0.18 bit/pixel
Аудио: 44.100 kHz, MPEG Layer 3, 2 ch, ~128.00 kbps avg

Отчет Media Info

1-я часть:
General
Complete name : Volki.i.ovcy.Malyi.teatr.1973.SATRip.fenixclub\Volki.i.ovcy.1.avi
Формат : AVI
Формат/Информация : Audio Video Interleave
Размер файла : 1,18 Гбайт
Продолжительность : 1 ч. 35 м.
Общий поток : 1780 Кбит/сек
Видео
Идентификатор : 0
Формат : MPEG-4 Visual
Профиль формата : Advanced Simple@L5
Параметр BVOP формата : 2
Параметр QPel формата : Нет
Параметр GMC формата : Без точки перехода
Параметр матрицы формата : Default (H.263)
Идентификатор кодека : XVID
Идентификатор кодека/Подсказка : XviD
Продолжительность : 1 ч. 35 м.
Битрейт : 1642 Кбит/сек
Ширина : 704 пикселя
Высота : 528 пикселей
Соотношение сторон : 4:3
Частота кадров : 25,000 кадров/сек
Цветовое пространство : YUV
Субдискретизация насыщенности : 4:2:0
Битовая глубина : 8 бит
Тип развёртки : Прогрессивная
Метод сжатия : С потерями
Бит/(Пиксели*Кадры) : 0.177
Размер потока : 1,09 Гбайт (92%)
Библиотека кодирования : XviD 1.2.1 (UTC 2008-12-04)
Аудио
Идентификатор : 1
Формат : MPEG Audio
Версия формата : Version 1
Профиль формата : Layer 3
Режим : Joint stereo
Расширение режима : MS Stereo
Идентификатор кодека : 55
Идентификатор кодека/Подсказка : MP3
Продолжительность : 1 ч. 35 м.
Продолжительность оригинала : 1 ч. 35 м.
Вид битрейта : Постоянный
Битрейт : 128 Кбит/сек
Каналы : 2 канала
Частота : 44,1 КГц
Метод сжатия : С потерями
Размер потока : 87,1 Мбайт (7%)
Выравнивание : Соединение по промежуткам
Продолжительность промежутка : 40 мс. (1,00 видеокадр)
2-я часть:
General
Complete name : Volki.i.ovcy.Malyi.teatr.1973.SATRip.fenixclub\Volki.i.ovcy.2.avi
Формат : AVI
Формат/Информация : Audio Video Interleave
Размер файла : 1010 Мбайт
Продолжительность : 1 ч. 17 м.
Общий поток : 1828 Кбит/сек
Видео
Идентификатор : 0
Формат : MPEG-4 Visual
Профиль формата : Advanced Simple@L5
Параметр BVOP формата : 2
Параметр QPel формата : Нет
Параметр GMC формата : Без точки перехода
Параметр матрицы формата : Выборочная
Идентификатор кодека : XVID
Идентификатор кодека/Подсказка : XviD
Продолжительность : 1 ч. 17 м.
Битрейт : 1690 Кбит/сек
Ширина : 704 пикселя
Высота : 528 пикселей
Соотношение сторон : 4:3
Частота кадров : 25,000 кадров/сек
Цветовое пространство : YUV
Субдискретизация насыщенности : 4:2:0
Битовая глубина : 8 бит
Тип развёртки : Прогрессивная
Метод сжатия : С потерями
Бит/(Пиксели*Кадры) : 0.182
Размер потока : 934 Мбайт (92%)
Библиотека кодирования : XviD 1.2.1 (UTC 2008-12-04)
Аудио
Идентификатор : 1
Формат : MPEG Audio
Версия формата : Version 1
Профиль формата : Layer 3
Режим : Joint stereo
Расширение режима : MS Stereo
Идентификатор кодека : 55
Идентификатор кодека/Подсказка : MP3
Продолжительность : 1 ч. 17 м.
Продолжительность оригинала : 1 ч. 17 м.
Вид битрейта : Постоянный
Битрейт : 128 Кбит/сек
Каналы : 2 канала
Частота : 44,1 КГц
Метод сжатия : С потерями
Размер потока : 70,7 Мбайт (7%)
Выравнивание : Соединение по промежуткам
Продолжительность промежутка : 40 мс. (1,00 видеокадр)
Библиотека кодирования : LAME3.99.5

Скриншоты


Альтернативный хост





Показать сообщения:    

Текущее время: 04-Дек 23:25

Часовой пояс: UTC + 3


Вы не можете начинать темы
Вы не можете отвечать на сообщения
Вы не можете редактировать свои сообщения
Вы не можете удалять свои сообщения
Вы не можете голосовать в опросах
Вы не можете прикреплять файлы к сообщениям
Вы не можете скачивать файлы