...Чума на оба ваши дома! (Татьяна Ахрамкова, Константин Антропов) [2002 г., Трагикомедия, WEB-DLRip] Московский академический театр им. Вл. Маяковского


 

[Цитировать]

...Чума на оба ваши дома! Название театра: Московский академический театр им. Вл. Маяковского.
Год выпуска: 2002.
Жанр: Трагикомедия в 2-х частях.
Продолжительность: 02:53:12.
Режиссеры: Татьяна Ахрамкова, Константин Антропов.
Действующие лица и исполнители:
Бартоломео делла Скала, герцог Веронский - народный артист России и Грузии Ефим Байковский,
Брат Лоренцо, францисканский монах - заслуженный артист России Александр Шаврин,
Бард - Андрей Мисин.
Дом Монтекки:
Синьор Монтекки
- народный артист РСФСР Александр Лазарев,
Бенволио, племянник, друг покойного Ромео - Вячеслав Титов,
Антонио, дальний родственник из Неаполя - заслуженный артист России Анатолий Лобоцкий,
Бальтазар, слуга - Игорь Марычев.
Дом Капулетти:
Синьор Капулетти
- Александр Ильин,
Синьора Капулетти - народная артистка РСФСР Светлана Немоляева,
Валентин, брат покойного Тибальда - Игорь Евтушенко,
Розалина, племянница - Анна Ардова,
Самсон, слуга - Дмитрий Прокофьев,
Кормилица - Людмила Иванилова,
Винченцо - Сергей Удовик,
Джорджи, негоциант - Денис Карасёв,
Музыканты: Владимир Глотов, Наталья Зельма, народная артистка СССР Надежда Павлова, Юрий Сошин, Евгений Якушкин,
Горожане Вероны, родственники и слуги обоих домов - артисты театра.
О спектакле:
"Это была моя давняя задумка - рассказать о том, что происходило в городе Вероне после трагической гибели Ромео и Джульетты. Ведь все сконцентрировали своё внимание на подростках, а вокруг них жили взрослые люди, которые про любовь знают гораздо больше. И мне, как взрослому человеку, было что сказать по этому предмету. Тема любви - первый стимул, заставивший меня размышлять о продолжении трагедии Шекспира.
…узкие улицы города Вероны, они теперь полны звуками. Эти звуки - часть удивительной музыки Беллини, Гуно, Чайковского и Прокофьева, навеянной темой любви и ненависти Монтекки и Капулетти. …Слушая сочинение этих композиторов, я вдруг однажды ясно увидел в подробностях, что же произошло с враждующими семьями на следующий день после гибели молодых". (Григорий Горин)
Пьеса написана в 1994 году.
Место действия — Верона, XIV век.
Монах-францисканец Лоренцо, тот самый, который тайно повенчал Ромео и Джульету, рассказывает, что было дальше в истории, которую поведали миру Маттео Банделло и Уильям Шекспир. Герцог безуспешно пытается примирить два враждующих дома. Увещевания, угрозы, аресты не помогают. Тогда герцог приказывает семьям назначить жениха и невесту из каждого клана, чтобы обвенчать их - герцог хочет примирить кланы, сделав их родственниками. Монтекки должны подыскать жениха, Капулетти - невесту. В случае ослушания герцог угрожает массовыми арестами. Семьи начинают искать кандидатов по принципу "кого не жалко" и чтобы насолить врагам...

Дополнительная информация:
Страна: Россия .
Выпущено: Студия фондовых и архивных программ © ГТРК "Культура" .
Автор: Григорий Горин.
Режиссер-постановщик: Татьяна Ахрамкова.
Художник: Станислав Морозов.
Художник по костюмам: заслуженный художник России Ксения Шимановская.
Композитор: Андрей Мисин.
Танцы и пластика: Татьяна Борисова, Сергей Цветков.
Художник по свету: Геннадий Бирюшов.
В спектакле звучат баллады на стихи европейских поэтов эпохи Возрождения.
Художественный руководитель театра: народный артист России, лауреат Государственной премии Сергей Арцибашев.
Премьера спектакля состоялась: 24 сентября 1998 года.
Режиссер телеверсии: Константин Антропов.
Операторы: Юрий Назаров, Владимир Иванов, Владимир Кузаков, Андрей Морозов, Александр.

О спектакле.
Релиз
Рип lesik689.
Огромное спасибо Доброму человеку за предоставленый материал!!!

Качество видео:...SATRip
Формат:.................AVI
Видео:..688x512 (1.34:1), 25 fps, XviD MPEG-4 ~1684 kbps avg, 0.19 bit/pixel
Аудио:..48 kHz, MPEG Layer 3, 2 ch, ~128.00 kbps avg

Отчет Media Info

General
Complete name : Chuma.na.oba.vashi.doma_Moskovskij.AT.im.Mayakovskokgo.2002.XviD.SATRip.fenixclub.avi
Формат : AVI
Формат/Информация : Audio Video Interleave
Профиль формата : OpenDML
Размер файла : 2,20 Гбайт
Продолжительность : 2 ч. 53 м.
Общий поток : 1820 Кбит/сек
Программа кодирования : VirtualDubMod 1.5.10.2 (build 2542/release)
Библиотека кодирования : VirtualDubMod build 2542/release
Видео
Идентификатор : 0
Формат : MPEG-4 Visual
Профиль формата : Advanced Simple@L5
Параметр BVOP формата : 2
Параметр QPel формата : Нет
Параметр GMC формата : Без точки перехода
Параметр матрицы формата : Default (MPEG)
Режим смешивания : Сжатый битовый поток
Идентификатор кодека : XVID
Идентификатор кодека/Подсказка : XviD
Продолжительность : 2 ч. 53 м.
Битрейт : 1679 Кбит/сек
Ширина : 688 пикселей
Высота : 512 пикселей
Соотношение сторон : 5:4
Соотношение сторон в оригинале : 4:3
Частота кадров : 25,000 кадров/сек
Цветовое пространство : YUV
Субдискретизация насыщенности : 4:2:0
Битовая глубина : 8 бит
Тип развёртки : Прогрессивная
Метод сжатия : С потерями
Бит/(Пиксели*Кадры) : 0.191
Размер потока : 2,03 Гбайт (92%)
Библиотека кодирования : XviD 64
Аудио
Идентификатор : 1
Формат : MPEG Audio
Версия формата : Version 1
Профиль формата : Layer 3
Режим : Joint stereo
Расширение режима : MS Stereo
Идентификатор кодека : 55
Идентификатор кодека/Подсказка : MP3
Продолжительность : 2 ч. 53 м.
Вид битрейта : Постоянный
Битрейт : 128 Кбит/сек
Каналы : 2 канала
Частота : 48,0 КГц
Метод сжатия : С потерями
Размер потока : 159 Мбайт (7%)
Выравнивание : Разделение по промежуткам
Продолжительность промежутка : 40 мс. (0,99 видеокадр)
Время предзагрузки промежутка : 500 мс.

Скриншоты


Альтернативный хост





Показать сообщения:    

Текущее время: 11-Дек 13:00

Часовой пояс: UTC + 3


Вы не можете начинать темы
Вы не можете отвечать на сообщения
Вы не можете редактировать свои сообщения
Вы не можете удалять свои сообщения
Вы не можете голосовать в опросах
Вы не можете прикреплять файлы к сообщениям
Вы не можете скачивать файлы