Тартюф (Сергей Посельский, Вера Бабичева) [2008 г., комедия, WEB-DLRip] Московский академический театр им. Вл. Маяковского. Филиал на Сретенке


 

[Цитировать]

Тартюф Название театра: Московский академический театр им. Вл. Маяковского. Филиал на Сретенке.
Год выпуска: 2008.
Жанр: комедия.
Продолжительность: 01:37:57.
Режиссеры: Сергей Посельский, заслуженная артистка Армянской ССР Вера Бабичева, Денис Горчанов.
Действующие лица и исполнители:
Тартюф - Алексей Дякин,
Оргон - Сергей Посельский,
Госпожа Пернель - Мариэтта Цигаль-Полищук,
Эльмира - Ольга Смирнова,
Дамис - Дмитрий Шаракоис,
Марианна - Антонина Шеина,
Валер - Александр Андриевич,
Флипота - Анна Данилова,
Клеант - Илья Митрофанов,
Дорина - Евгения Савкина,
Офицер - Николай Гросицкий.
О спектакле:
Смешной, остроумный, искрометный спектакль по пьесе Жана Батиста Мольера "Тартюф", разыгран молодыми артистами. История, написанная великим французским комедиографом, рассказывает о пагубности человеческого лицемерия и разрушительности его природы.
Дополнительная информация:
Страна: Россия .
Выпущено: © Gorchanov Studio.
Автор пьесы: Жан Батист Мольер.
Режиссер-постановщик: Сергей Посельский
Режиссер-педагог: заслуженная артистка Армянской ССР Вера Бабичева.
Художник: заслуженный художник России Валерий Фомин.
Художник по костюмам: Ольга Кулагина.
Художественный руководитель постановки: Сергей Голомазов.
Художественный руководитель театра: народный артист России, лауреат Государственной премии Сергей Арцибашев.
Начало работы над спектаклем: осень 2004 года.
Премьера в Учебном театре РАТИ (ГИТИС): 20 января 2006 года.
Премьера на сцене Филиала театра Маяковского: 28 марта 2007 года.
Последний спектакль: 10 июня 2009 г.
Режиссер телеверсии: Денис Горчанов.
Оператор-постановщик: Александр Сафонов.

О спектакле.
Релиз
Рип sharky.

Качество видео:...WEB-DLRip
Формат:.................AVI
Видео:..704x528 (1.33:1), 25 fps, XviD build 47 ~1916 kbps avg, 0.21 bit/pixel
Аудио:..48 kHz, AC3 Dolby Digital, 2/0 (L,R) ch, ~192 kbps

Отчет Media Info

General
Complete name : Tartyuf_Moskovskij.AT.im.Mayakovskokgo.2008.XviD.WEB-DLRip.fenixclub.avi
Формат : AVI
Формат/Информация : Audio Video Interleave
Размер файла : 1,45 Гбайт
Продолжительность : 1 ч. 37 м.
Общий поток : 2119 Кбит/сек
Программа кодирования : VirtualDubMod 1.5.10.2 (build 2540/release)
Библиотека кодирования : VirtualDubMod build 2540/release
Видео
Идентификатор : 0
Формат : MPEG-4 Visual
Профиль формата : Advanced Simple@L5
Параметр BVOP формата : 1
Параметр QPel формата : Нет
Параметр GMC формата : Без точки перехода
Параметр матрицы формата : Default (H.263)
Идентификатор кодека : XVID
Идентификатор кодека/Подсказка : XviD
Продолжительность : 1 ч. 37 м.
Битрейт : 1917 Кбит/сек
Ширина : 704 пикселя
Высота : 528 пикселей
Соотношение сторон : 4:3
Частота кадров : 25,000 кадров/сек
Цветовое пространство : YUV
Субдискретизация насыщенности : 4:2:0
Битовая глубина : 8 бит
Тип развёртки : Прогрессивная
Метод сжатия : С потерями
Бит/(Пиксели*Кадры) : 0.206
Размер потока : 1,31 Гбайт (90%)
Библиотека кодирования : XviD 1.2.0.dev47 (UTC 2006-11-01)
Аудио
Идентификатор : 1
Формат : AC-3
Формат/Информация : Audio Coding 3
Расширение режима : CM (complete main)
Параметр Endianness формата : Big
Идентификатор кодека : 2000
Продолжительность : 1 ч. 37 м.
Вид битрейта : Постоянный
Битрейт : 192 Кбит/сек
Каналы : 2 канала
Расположение каналов : Front: L R
Частота : 48,0 КГц
Битовая глубина : 16 бит
Метод сжатия : С потерями
Размер потока : 135 Мбайт (9%)
Выравнивание : Разделение по промежуткам
Продолжительность промежутка : 40 мс. (1,00 видеокадр)
Время предзагрузки промежутка : 500 мс.

Скриншоты


Альтернативный хост





Показать сообщения:    

Текущее время: 09-Дек 18:33

Часовой пояс: UTC + 3


Вы не можете начинать темы
Вы не можете отвечать на сообщения
Вы не можете редактировать свои сообщения
Вы не можете удалять свои сообщения
Вы не можете голосовать в опросах
Вы не можете прикреплять файлы к сообщениям
Вы не можете скачивать файлы