История села Горюхина (Андрей Андреев) [2011 г., моноспектакль, TVRip] Государственный Пушкинский Театральный Центр, Санкт-Петербург


 

[Цитировать]

История села ГорюхинаНазвание театра: Государственный Пушкинский Театральный Центр, Санкт-Петербург.
Год выпуска: 2011.
Жанр: моноспектакль.
Продолжительность: 01:32:56.
Режиссер: Андрей Андреев.
Исполнитель: артист Молодежного театра на Фонтанке заслуженный артист России Сергей Барковский.
О спектакле:
Эта повесть Пушкиным не завершена, а спектакль выглядит цельным. Может быть, потому, что подан он как презентация творений незадачливого литератора Ивана Петровича Белкина. И актер, с его фирменной летучей иронией, нигде не теряет необходимой двойственности - рассказчика и персонажа. А темы - традиционны. Здесь и муки творчества, и "моя родословная", и неудачное хозяйствование, и кукольная трагедия "малых сих". Но если взглянуть шире, разговор, как всегда, свелся к судьбам России.
С этим спектаклем Сергей Барковский объехал полмира. Это единственная театральная интерпретация пушкинского произведения. В его основе – автобиографическая история поэта, который ровно два дня пытался управлять своим имением в Кистеневке. Приехал вступать в права наследства, понял, что староста вор, и нет порядка. Взялся порядок наводить сам. Понял, что невозможно руководить этими мужиками, вернул назад старосту и написал свою повесть.

Дополнительная информация:
Запись спектакля с XVIII Всероссийского Театрального Пушкинского фестиваля.
Страна: Россия .
Автор: Александр Сергеевич Пушкин.
Художники: Анна Алексеева и Наталья Крутова.

О спектакле.
Релиз

Качество видео:...TVRip
Формат:.................AVI
Видео:..640x352 (1.82:1), 25 fps, XviD MPEG-4 ~985 kbps avg, 0.17 bit/pixel
Аудио:..44.100 kHz, MPEG Layer 3, 2 ch, ~128.00 kbps avg

Отчет Media Info

General
Complete name : Istoriya.sela.Goryuhina_Gosudarstvennyj.Pushkinskij.Teatral'nyj.centr.2011.XviD.TVRip.fenixclub.avi
Формат : AVI
Формат/Информация : Audio Video Interleave
Размер файла : 747 Мбайт
Продолжительность : 1 ч. 32 м.
Общий поток : 1124 Кбит/сек
Программа кодирования : VirtualDubModRus 1.5.10.2 (build 2542/release)
Библиотека кодирования : VirtualDub build 34753/release
Видео
Идентификатор : 0
Формат : MPEG-4 Visual
Профиль формата : Advanced Simple@L5
Параметр BVOP формата : 2
Параметр QPel формата : Нет
Параметр GMC формата : Без точки перехода
Параметр матрицы формата : Default (H.263)
Режим смешивания : Сжатый битовый поток
Идентификатор кодека : XVID
Идентификатор кодека/Подсказка : XviD
Продолжительность : 1 ч. 32 м.
Битрейт : 986 Кбит/сек
Ширина : 640 пикселей
Высота : 352 пикселя
Соотношение сторон : 16:9
Частота кадров : 25,000 кадров/сек
Цветовое пространство : YUV
Субдискретизация насыщенности : 4:2:0
Битовая глубина : 8 бит
Тип развёртки : Прогрессивная
Метод сжатия : С потерями
Бит/(Пиксели*Кадры) : 0.175
Размер потока : 655 Мбайт (88%)
Библиотека кодирования : XviD 1.2.1 (UTC 2008-12-04)
Аудио
Идентификатор : 1
Формат : MPEG Audio
Версия формата : Version 1
Профиль формата : Layer 3
Режим : Joint stereo
Расширение режима : MS Stereo
Идентификатор кодека : 55
Идентификатор кодека/Подсказка : MP3
Продолжительность : 1 ч. 32 м.
Вид битрейта : Постоянный
Битрейт : 128 Кбит/сек
Каналы : 2 канала
Частота : 44,1 КГц
Метод сжатия : С потерями
Размер потока : 85,1 Мбайт (11%)
Выравнивание : Разделение по промежуткам
Продолжительность промежутка : 40 мс. (1,00 видеокадр)
Время предзагрузки промежутка : 500 мс.
Библиотека кодирования : LAME3.99.5

Скриншоты

Альтернативный хост




Показать сообщения:    

Текущее время: 06-Дек 11:11

Часовой пояс: UTC + 3


Вы не можете начинать темы
Вы не можете отвечать на сообщения
Вы не можете редактировать свои сообщения
Вы не можете удалять свои сообщения
Вы не можете голосовать в опросах
Вы не можете прикреплять файлы к сообщениям
Вы не можете скачивать файлы