Каменный гость (Леонид Вивьен, Антонин Даусон, Леонид Пчёлкин) [1971 г., трагедия, телеспектакль, SATRip] Ленинградский театр драмы имени А.С.Пушкина


 

[Цитировать]

Каменный гостьНазвание театра: Ленинградский театр драмы имени А.С.Пушкина.
Год выпуска: 1971.
Жанр: трагедия, телеспектакль.
Продолжительность: 00:49:30.
Режиссеры: народный артист СССР Леонид Вивьен, Антонин Даусон, заслуженный артист РСФСР Леонид Пчёлкин.
В ролях:
Дон Гуан - Семен Сытник,
Лепорелло - народный артист СССР Александр Борисов,
Дона Анна - Елена Вановская,
Лаура - Людмила Вагнер,
Дон Карлос - Борис Тетерин,
Монах - заслуженный артист Карельской АССР Алексей Селезнев.
Описание:
Когда в 1971 году Даусон вместе с Пчелкиным снимали цветной фильм-спектакль на основе знаменитого спектакля Леонида Вивьена "Маленькие трагедии", то часть "Каменный гость", оказалась "вынута". Получилась дилогия - раздача проходит [здесь.
И вот нашлась история о Дон Гуане. Она стала отдельной телевизионной постановкой, дополненной вступлением (5минут) о селе Михайловском, где в 1826 году возник замысел и появились первые наброски трагедии "Каменный гость".

Дополнительная информация:
Страна: СССР .
Выпущено: Творческое объединение "Экран".
Режиссер спектакля: Леонид Вивьен.
Режиссеры фильма: Антонин Даусон, Леонид Пчелкин.
Автор: Александр Пушкин.
Оператор-постановщик: Юрий Схиртладзе.
Художник-постановщик: Игорь Лемешев.

Релиз

Качество: SATRip
Формат: AVI
Видео: 704x528 (1.33:1), 25 fps, XviD MPEG-4 ~1194 kbps avg, 0.13 bit/pixel
Аудио: 44.100 kHz, MPEG Layer 3, 2 ch, ~128.00 kbps avg

Отчет MediaInfo

Общее
Полное имя : Kamennyi.gost'_Lenigradskij.TD.im.Pushkina.1971.XviD.SATRip.fenixclub.avi
Формат : AVI
Формат/Информация : Audio Video Interleave
Размер файла : 472 Мбайт
Продолжительность : 49 м.
Общий поток : 1333 Кбит/сек
Программа кодирования : VirtualDubModRus 1.5.10.2 (build 2542/release)
Библиотека кодирования : VirtualDub build 34753/release
Видео
Идентификатор : 0
Формат : MPEG-4 Visual
Профиль формата : Advanced Simple@L5
Параметр BVOP формата : 2
Параметр QPel формата : Нет
Параметр GMC формата : Без точки перехода
Параметр матрицы формата : Default (H.263)
Режим смешивания : Сжатый битовый поток
Идентификатор кодека : XVID
Идентификатор кодека/Подсказка : XviD
Продолжительность : 49 м.
Битрейт : 1195 Кбит/сек
Ширина : 704 пикселя
Высота : 528 пикселей
Соотношение сторон : 4:3
Частота кадров : 25,000 кадров/сек
Цветовое пространство : YUV
Субдискретизация насыщенности : 4:2:0
Битовая глубина : 8 бит
Тип развёртки : Прогрессивная
Метод сжатия : С потерями
Бит/(Пиксели*Кадры) : 0.129
Размер потока : 423 Мбайт (90%)
Библиотека кодирования : XviD 1.2.1 (UTC 2008-12-04)
Аудио
Идентификатор : 1
Формат : MPEG Audio
Версия формата : Version 1
Профиль формата : Layer 3
Режим : Joint stereo
Расширение режима : MS Stereo
Идентификатор кодека : 55
Идентификатор кодека/Подсказка : MP3
Продолжительность : 49 м.
Вид битрейта : Постоянный
Битрейт : 128 Кбит/сек
Каналы : 2 канала
Частота : 44,1 КГц
Метод сжатия : С потерями
Размер потока : 45,3 Мбайт (10%)
Выравнивание : Разделение по промежуткам
Продолжительность промежутка : 40 мс. (1,00 видеокадр)
Время предзагрузки промежутка : 500 мс.

Скриншоты

Альтернативный хост




Показать сообщения:    

Текущее время: 10-Дек 00:17

Часовой пояс: UTC + 3


Вы не можете начинать темы
Вы не можете отвечать на сообщения
Вы не можете редактировать свои сообщения
Вы не можете удалять свои сообщения
Вы не можете голосовать в опросах
Вы не можете прикреплять файлы к сообщениям
Вы не можете скачивать файлы