Чума на оба ваши дома (Татьяна Ахрамкова, Константин Антропов) [2002, драма, DVB] Московский академический театр имени В. Маяковского


 

[Цитировать]

Чума на оба ваши дома
Запись сделана и любезно предоставлена коллегой ItarTass
Название театра: Московский академический театр имени В. Маяковского
Жанр: трагикомедия
Год выпуска: 2002
Продолжительность: 01:20:53 + 01:32:17
Режиссёр: Татьяна Ахрамкова, Константин Антропов
В ролях: Светлана Немоляева, Александр Лазарев-ст., Анна Ардова, Анатолий Лобоцкий, Ефим Байковский.
Описание: Жители Вероны прощаются с трагически погибшими Ромео и Джульеттой. Финал трагедии Шекспира – начало трагикомедии Г. Горина, продолжающей историю взаимоотношений Монтекки и Капулетти.
Доп. информация:
Запись потока *.ts со спутника Ямал 202, 49° в.д., ремукс в *.mpg программой VideoReDo.
Качество видео: DVB
Формат видео: MPEG-РS
Видео: 720(768)x576 (4 : 3), 25,000 кадров/сек, 5084 Кбит/сек
Аудио: MPEG Audio, 48,0 КГц, 256 Кбит/сек, 2 канала

MediaInfo

Общее
Полное имя : D:\Torrent\ЧУМА НА ОБА ВАШИ ДОМА\Чума на оба ваши дома (2002)(DVB)Kultura часть 1.mpg
Формат : MPEG-PS
Размер файла : 3,08 Гбайт
Продолжительность : 1 ч. 20 м.
Режим общего битрейта : Переменный
Общий поток : 5448 Кбит/сек
Видео
Идентификатор : 224 (0xE0)
Формат : MPEG Video
Версия формата : Version 2
Профиль формата : Main@Main
Параметр BVOP формата : Да
Параметр матрицы формата : Выборочная
Параметр GOP формата : M=3, N=15
Продолжительность : 1 ч. 20 м.
Вид битрейта : Переменный
Битрейт : 5084 Кбит/сек
Максимальный битрейт : 15,0 Мбит/сек
Ширина : 720 пикселей
Высота : 576 пикселей
Соотношение сторон : 4:3
Частота кадров : 25,000 кадров/сек
Стандарт вещания : PAL
Цветовое пространство : YUV
Субдискретизация насыщенности : 4:2:0
Битовая глубина : 8 бит
Тип развёртки : Чересстрочная
Порядок развёртки : Верхнее поле первое
Метод сжатия : С потерями
Бит/(Пиксели*Кадры) : 0.490
Временной код первого кадра : 00:00:00:00
Оригинал временного кода : Group of pictures header
Размер потока : 2,87 Гбайт (93%)
Аудио
Идентификатор : 192 (0xC0)
Формат : MPEG Audio
Версия формата : Version 1
Профиль формата : Layer 2
Продолжительность : 1 ч. 20 м.
Вид битрейта : Постоянный
Битрейт : 256 Кбит/сек
Каналы : 2 канала
Частота : 48,0 КГц
Метод сжатия : С потерями
Размер потока : 148 Мбайт (5%)
Общее
Полное имя : D:\Torrent\ЧУМА НА ОБА ВАШИ ДОМА\Чума на оба ваши дома (2002)(DVB)Kultura часть 2.mpg
Формат : MPEG-PS
Размер файла : 3,51 Гбайт
Продолжительность : 1 ч. 32 м.
Режим общего битрейта : Переменный
Общий поток : 5448 Кбит/сек
Видео
Идентификатор : 224 (0xE0)
Формат : MPEG Video
Версия формата : Version 2
Профиль формата : Main@Main
Параметр BVOP формата : Да
Параметр матрицы формата : Выборочная
Параметр GOP формата : M=3, N=15
Продолжительность : 1 ч. 32 м.
Вид битрейта : Переменный
Битрейт : 5084 Кбит/сек
Максимальный битрейт : 15,0 Мбит/сек
Ширина : 720 пикселей
Высота : 576 пикселей
Соотношение сторон : 4:3
Частота кадров : 25,000 кадров/сек
Стандарт вещания : PAL
Цветовое пространство : YUV
Субдискретизация насыщенности : 4:2:0
Битовая глубина : 8 бит
Тип развёртки : Чересстрочная
Порядок развёртки : Верхнее поле первое
Метод сжатия : С потерями
Бит/(Пиксели*Кадры) : 0.490
Временной код первого кадра : 00:00:00:00
Оригинал временного кода : Group of pictures header
Размер потока : 3,28 Гбайт (93%)
Аудио
Идентификатор : 192 (0xC0)
Формат : MPEG Audio
Версия формата : Version 1
Профиль формата : Layer 2
Продолжительность : 1 ч. 32 м.
Вид битрейта : Постоянный
Битрейт : 256 Кбит/сек
Каналы : 2 канала
Частота : 48,0 КГц
Метод сжатия : С потерями
Размер потока : 169 Мбайт (5%)

Скриншот с названием постановки




Показать сообщения:    

Текущее время: 10-Дек 15:41

Часовой пояс: UTC + 3


Вы не можете начинать темы
Вы не можете отвечать на сообщения
Вы не можете редактировать свои сообщения
Вы не можете удалять свои сообщения
Вы не можете голосовать в опросах
Вы не можете прикреплять файлы к сообщениям
Вы не можете скачивать файлы