Гамлет (Зураб Нанобашвили) [2012 г., трагедия, SATRip] Вологодский драматический театр


 

[Цитировать]

Гамлет Название театра: Вологодский драматический театр.
Жанр: трагедия.
Год выпуска: 2012.
Продолжительность: 02:25:01.
Режиссер-постановщик: Зураб Нанобашвили.
Действующие лица и исполнители:
Гамлет, сын покойного короля Гамлета и племянник нынешнего - Дмитрий Бычков,
Призрак отца принца Гамлета - Владимир Таныгин,
Клавдий, король Дании, дядя принца Гамлета - Николай Акулов,
Гертруда, королева Дании, мать Гамлета и супруга Клавдия - Анастасия Задорина,
Полоний, первый вельможа при дворе Клавдия - заслуженный артист России Олег Емельянов,
Офелия, дочь Полония - Наталия Абашидзе,
Лаэрт, сын Полония - Игорь Ломанович,
Корнелий, вельможа - Дмитрий Мельников,
Горацио, университетский приятель принца Гамлета - Александр Чупин,
Школьные приятели принца Гамлета:
Розенкранц
- Виталий Полозов,
Гильденстерн - Александр Соколов,
Актёры:
Актёр-король
- Аркадий Печкин,
Актриса-королева - Екатерина Петрова,
Актер-Луциан, он же Пролог - Владимир Смирнов,
Могильщик - Андрей Светоносов.
О спектакле:
История о принце датском Гамлете похожа на хорошо выстроенный мистический триллер с элементами детектива. У стен королевского замка начал появляться призрак, поражающий внешним сходством с недавно умершим королём. Сын короля Гамлет решает увидеться с призраком, поскольку обстоятельства смерти отца и "скоропостижный брак" матери и дяди, родного брата короля, не дают покоя несчастному Гамлету, наблюдающему разрушение семьи. Призрак - посланник ада или действительно дух отца? - сообщает принцу, что нынешний король - братоубийца, и завещает сыну месть. Теперь главная задача Гамлета - заставить убийцу-Клавдия выдать себя, если он действительно совершил преступление. Принц притворяется сумасшедшим, а потом организует в замке представление труппы бродячих артистов, которые на сцене должны воссоздать картину убийства отца. Однако затеянная Гамлетом игра, в которой доверять нельзя никому, выходит из-под контроля.
Дополнительная информация:
Страна: Россия .
Выпущено: © Культура.рф.
Автор: Уильям Шекспир.
Перевод Андрея Чернова.
Художник-постановщик: Виктор Рубинштейн.
Художник по костюмам: Татьяна Стысина.
Музыкальное оформление: Дина Бортник.
Премьера состоялась в мае 2012 года.

О спектакле.
Релиз
Огромное спасибо Доброму человеку за предоставленый материал!!!

Качество видео:...SATRip
Формат:.................AVI
Видео:..720x400 (1.80:1), 25 fps, XviD MPEG-4 ~1209 kbps avg, 0.17 bit/pixel
Аудио:..44.100 kHz, MPEG Layer 3, 2 ch, ~128.00 kbps avg

Отчет MediaInfo

Общее
Полное имя : Gamlet_Vologodskij.Dram.teatr.2012.XviD.SATRip.fenixclub.avi
Формат : AVI
Формат/Информация : Audio Video Interleave
Размер файла : 1,37 Гбайт
Продолжительность : 2 ч. 25 м.
Общий поток : 1348 Кбит/сек
Программа кодирования : VirtualDubModRus 1.5.10.2 (build 2542/release)
Библиотека кодирования : VirtualDub build 34753/release
Видео
Идентификатор : 0
Формат : MPEG-4 Visual
Профиль формата : Advanced Simple@L5
Параметр BVOP формата : 2
Параметр QPel формата : Нет
Параметр GMC формата : Без точки перехода
Параметр матрицы формата : Default (H.263)
Режим смешивания : Сжатый битовый поток
Идентификатор кодека : XVID
Идентификатор кодека/Подсказка : XviD
Продолжительность : 2 ч. 25 м.
Битрейт : 1210 Кбит/сек
Ширина : 720 пикселей
Высота : 400 пикселей
Соотношение сторон : 16:9
Частота кадров : 25,000 кадров/сек
Цветовое пространство : YUV
Субдискретизация насыщенности : 4:2:0
Битовая глубина : 8 бит
Тип развёртки : Прогрессивная
Метод сжатия : С потерями
Бит/(Пиксели*Кадры) : 0.168
Размер потока : 1,23 Гбайт (90%)
Библиотека кодирования : XviD 1.2.1 (UTC 2008-12-04)
Аудио
Идентификатор : 1
Формат : MPEG Audio
Версия формата : Version 1
Профиль формата : Layer 3
Режим : Joint stereo
Расширение режима : MS Stereo
Идентификатор кодека : 55
Идентификатор кодека/Подсказка : MP3
Продолжительность : 2 ч. 25 м.
Вид битрейта : Постоянный
Битрейт : 128 Кбит/сек
Каналы : 2 канала
Частота : 44,1 КГц
Метод сжатия : С потерями
Размер потока : 133 Мбайт (9%)
Выравнивание : Разделение по промежуткам
Продолжительность промежутка : 40 мс. (1,00 видеокадр)
Время предзагрузки промежутка : 500 мс.
Библиотека кодирования : LAME3.99.5

Скриншоты


Альтернативный хост





Показать сообщения:    

Текущее время: 04-Дек 02:55

Часовой пояс: UTC + 3


Вы не можете начинать темы
Вы не можете отвечать на сообщения
Вы не можете редактировать свои сообщения
Вы не можете удалять свои сообщения
Вы не можете голосовать в опросах
Вы не можете прикреплять файлы к сообщениям
Вы не можете скачивать файлы