Безумный день, или Женитьба Фигаро (Марк Захаров, Юрий Махаев) [2005, комедия, DVB] Московский театр "Ленком"


 

[Цитировать]

Безумный день, или Женитьба Фигаро
Запись сделана и любезно предоставлена коллегой ItarTass
Название театра: Московский театр "Ленком"
Жанр: комедия
Год выпуска: 2005
Продолжительность: 01:10:00 + 01:10:56
Режиссёр: Марк Захарова, Юрий Махаев
В ролях: Фигаро - Дмитрий Певцов,
Сюзанна - Наталья Щукина,
Граф Альмавива - Александр Лазарев,
Графиня Альмавива - Александра Захарова,
Марселина - Анна Якунина,
Базиль - Сергей Спепанченко,
Керубино - Дмитрий Волков,
Доктор Бартоло - Александр Сирин,
Садовник Антонио - Игорь Фокин,
Фаншетта - Алла Юганова,
Судья Бридуазон - Сергей Фролов,
Дубльмен - Геннадий Козлов,
Грипсолейль - Александр Карнаушкин,
Педрильо - Денис Немыкин.
Описание: Телеверсия спектакля Московского театра "Ленком". Запись 2005 года. 2 части.
Постановка Марка Захарова и Юрия Махаева.
Спектакль посвящен Андрею Миронову.
Доп. информация:
Запись потока *.ts со спутника Ямал 202, 49° в.д., ремукс в *.mpg программой VideoReDo.
Качество видео: DVB
Формат видео: MPEG-PS
Видео: MPEG2 Video, 720(768)x576 (4:3), 25,000 кадров/сек, 5448 Кбит/сек
Аудио: MPEG Audio, 48,0 КГц, 256 Кбит/сек, 2 канала

MediaInfo

Общее
Полное имя : D:\Torrent\Женитьба Фигаро 2005\Безумный день, или женитьба Фигаро (2005)(DVB)Kultura часть 1.mpg
Формат : MPEG-PS
Размер файла : 2,66 Гбайт
Продолжительность : 1 ч. 10 м.
Режим общего битрейта : Переменный
Общий поток : 5448 Кбит/сек
Видео
Идентификатор : 224 (0xE0)
Формат : MPEG Video
Версия формата : Version 2
Профиль формата : Main@Main
Параметр BVOP формата : Да
Параметр матрицы формата : Выборочная
Параметр GOP формата : M=3, N=15
Продолжительность : 1 ч. 10 м.
Вид битрейта : Переменный
Битрейт : 5083 Кбит/сек
Максимальный битрейт : 15,0 Мбит/сек
Ширина : 720 пикселей
Высота : 576 пикселей
Соотношение сторон : 4:3
Частота кадров : 25,000 кадров/сек
Стандарт вещания : PAL
Цветовое пространство : YUV
Субдискретизация насыщенности : 4:2:0
Битовая глубина : 8 бит
Тип развёртки : Чересстрочная
Порядок развёртки : Верхнее поле первое
Метод сжатия : С потерями
Бит/(Пиксели*Кадры) : 0.490
Временной код первого кадра : 00:00:00:00
Оригинал временного кода : Group of pictures header
Размер потока : 2,49 Гбайт (93%)
Аудио
Идентификатор : 192 (0xC0)
Формат : MPEG Audio
Версия формата : Version 1
Профиль формата : Layer 2
Продолжительность : 1 ч. 10 м.
Вид битрейта : Постоянный
Битрейт : 256 Кбит/сек
Каналы : 2 канала
Частота : 48,0 КГц
Метод сжатия : С потерями
Размер потока : 128 Мбайт (5%)
Общее
Полное имя : D:\Torrent\Женитьба Фигаро 2005\Безумный день, или женитьба Фигаро (2005)(DVB)Kultura часть 2.mpg
Формат : MPEG-PS
Размер файла : 2,70 Гбайт
Продолжительность : 1 ч. 10 м.
Режим общего битрейта : Переменный
Общий поток : 5448 Кбит/сек
Видео
Идентификатор : 224 (0xE0)
Формат : MPEG Video
Версия формата : Version 2
Профиль формата : Main@Main
Параметр BVOP формата : Да
Параметр матрицы формата : Выборочная
Параметр GOP формата : M=3, N=15
Продолжительность : 1 ч. 10 м.
Вид битрейта : Переменный
Битрейт : 5083 Кбит/сек
Максимальный битрейт : 15,0 Мбит/сек
Ширина : 720 пикселей
Высота : 576 пикселей
Соотношение сторон : 4:3
Частота кадров : 25,000 кадров/сек
Стандарт вещания : PAL
Цветовое пространство : YUV
Субдискретизация насыщенности : 4:2:0
Битовая глубина : 8 бит
Тип развёртки : Чересстрочная
Порядок развёртки : Верхнее поле первое
Метод сжатия : С потерями
Бит/(Пиксели*Кадры) : 0.490
Временной код первого кадра : 00:00:00:00
Оригинал временного кода : Group of pictures header
Размер потока : 2,52 Гбайт (93%)
Аудио
Идентификатор : 192 (0xC0)
Формат : MPEG Audio
Версия формата : Version 1
Профиль формата : Layer 2
Продолжительность : 1 ч. 10 м.
Вид битрейта : Постоянный
Битрейт : 256 Кбит/сек
Каналы : 2 канала
Частота : 48,0 КГц
Метод сжатия : С потерями
Размер потока : 130 Мбайт (5%)

Скриншот с названием постановки




Показать сообщения:    

Текущее время: 08-Дек 09:07

Часовой пояс: UTC + 3


Вы не можете начинать темы
Вы не можете отвечать на сообщения
Вы не можете редактировать свои сообщения
Вы не можете удалять свои сообщения
Вы не можете голосовать в опросах
Вы не можете прикреплять файлы к сообщениям
Вы не можете скачивать файлы