Евгений Гришковец - Прощание с бумагой (Владимир Алексеев) [2014, Россия, Моноспектакль, WEB-DLRip-AVC]


 

[Цитировать]

Евгений Гришковец - Прощание с бумагой
Страна: Россия
Жанр: Моноспектакль
Год выпуска: 2014
Продолжительность: 02:34:58
Язык: Русский
Режиссёр: Владимир Алексеев
В ролях: Евгений Гришковец
Описание: Евгений Гришковец посвятил новый спектакль «Прощание с бумагой» расставанию человечества с бумагой, как частью привычного образа жизни. Как всегда, он говорит о том, что, казалось бы, лежит прямо перед глазами, о чем каждый хотя бы раз задумался, но потом взял и отогнал эту мысль, как несущественную или просто забыл о ней. Всем же очевидно, что бумага уходит из нашей жизни, уступая свои позиции смартфонам, ридерам и прочим электронным устройствам, и вместе с ней уходит не только привычка читать книги напечатанными, а не выведенными на экран компьютера, но что-то большее. Что-то, что начинается с совсем маленьких вещей, уже исчезнувших навсегда.
Вскоре, может быть, будут забыты карты, письма, книги и газеты. Шелест утренней газеты — уже и сейчас полузабытый звук.
Вместе с бумагой уходят ощущения и эмоции (не все, конечно, но какие-то — точно). Об этом — еще одна история из нового спектакля.
«Мы расстаемся не с бумагой, а с образом жизни. Навсегда», — напоминает Гришковец.
Качество видео: WEB-DLRip
Формат видео: AVI
Видео: MPEG4 Video (H264) 720x400 (16:9) 25fps 1687kbps [V: h264 constrained baseline L1.3, yuv420p]
Аудио: mp3, 44100 Hz, stereo, 128 kb/s
DVD9: http://rutracker.org/forum/viewtopic.php?t=4778820

MediaInfo

General
Complete name : Grishkovets_Proshanie_s_bumagoy.avi
Format : AVI
Format/Info : Audio Video Interleave
Format profile : OpenDML
File size : 1.98 GiB
Duration : 2h 34mn
Overall bit rate : 1 828 Kbps
Writing application : Lavf51.12.1
Video
ID : 0
Format : AVC
Format/Info : Advanced Video Codec
Format profile : Baseline@L1.3
Format settings, CABAC : No
Format settings, ReFrames : 1 frame
Codec ID : H264
Duration : 2h 34mn
Bit rate : 1 688 Kbps
Width : 720 pixels
Height : 400 pixels
Display aspect ratio : 16:9
Frame rate mode : Variable
Frame rate : 25.000 fps
Color space : YUV
Chroma subsampling : 4:2:0
Bit depth : 8 bits
Scan type : Progressive
Bits/(Pixel*Frame) : 0.234
Stream size : 1.83 GiB (92%)
Audio
ID : 1
Format : MPEG Audio
Format version : Version 1
Format profile : Layer 3
Mode : Joint stereo
Mode extension : MS Stereo
Codec ID : 55
Codec ID/Hint : MP3
Duration : 2h 34mn
Bit rate mode : Constant
Bit rate : 128 Kbps
Channel(s) : 2 channels
Sampling rate : 44.1 KHz
Compression mode : Lossy
Stream size : 142 MiB (7%)
Alignment : Aligned on interleaves
Interleave, duration : 26 ms (0.65 video frame)
Interleave, preload duration : 26 ms
Writing library : LAME3.97

Скриншот с названием постановки

Скриншоты




Показать сообщения:    

Текущее время: 11-Дек 01:24

Часовой пояс: UTC + 3


Вы не можете начинать темы
Вы не можете отвечать на сообщения
Вы не можете редактировать свои сообщения
Вы не можете удалять свои сообщения
Вы не можете голосовать в опросах
Вы не можете прикреплять файлы к сообщениям
Вы не можете скачивать файлы