Вечер поэзии. Сергей Наровчатов [1979 г., Вечер поэзии, TVRip]


 

[Цитировать]

Вечер поэзии. Сергей Наровчатов Год выпуска: 1979.
Жанр: Вечер поэзии.
Продолжительность: 01:41:40.
Описание:
Вечер поэзии Сергея Наровчатова.
Автор читает свои произведения и отвечает на вопросы зрителей.
Сергей Сергеевич Наровчатов родился 3 октября 1919 года в Хвалынске, детство провёл в Москве, в 1933 году вместе с родителями переехал в Магадан, где окончил школу. Окончил Институт философии, литературы и истории и Литературный институт имени А. М. Горького. Участник советско-финской и Великой Отечественной войны.
Автор поэтических сборников "Костёр", "Солдаты свободы", "Взыскательный путник", в которых преобладает военная тема. В более поздних книгах: "Четверть века", "Через войну", "Полдень" звучат мотивы преемственности революционных и боевых традиций, философского раздумья о прожитом. Лирика Наровчатова открыто гражданственна, отмечена ясностью и простотой стиля. Активно выступает как литературный критик; книги "Необычное литературоведение" и "Атлантида рядом с тобой. Критика, полемика, размышления" включают в себя многочисленные высказывания автора по вопросам русской классической и современной советской поэзии. В 1973 опубликовал поэму "Василий Буслаев"
В 1974—1981 годы главный редактор журнала "Новый мир".
22 июля 1981 года Наровчатов умер в Коктебеле. Похоронен в Москве на Кунцевском кладбище.

Дополнительная информация:
Страна: СССР .
Релиз
Качество видео:...TVRip
Формат:.................AVI
Видео:..688x512 (1.34:1), 25 fps, XviD MPEG-4 ~1780 kbps avg, 0.20 bit/pixel
Аудио:..44.100 kHz, MPEG Layer 3, 2 ch, ~128.00 kbps avg

Отчет MI

Общее
Полное имя : Vecher.poezii.Sergei.Narovchatov.1979.XviD.TVRip.fenixclub.avi
Формат : AVI
Формат/Информация : Audio Video Interleave
Размер файла : 1,36 Гбайт
Продолжительность : 1 ч. 41 м.
Общий поток : 1919 Кбит/сек
Программа кодирования : VirtualDubModRus 1.5.10.2 (build 2542/release)
Библиотека кодирования : VirtualDubMod build 2542/release
Видео
Идентификатор : 0
Формат : MPEG-4 Visual
Профиль формата : Advanced Simple@L5
Параметр BVOP формата : 2
Параметр QPel формата : Нет
Параметр GMC формата : Без точки перехода
Параметр матрицы формата : Default (H.263)
Режим смешивания : Сжатый битовый поток
Идентификатор кодека : XVID
Идентификатор кодека/Подсказка : XviD
Продолжительность : 1 ч. 41 м.
Битрейт : 1781 Кбит/сек
Ширина : 688 пикселей
Высота : 512 пикселей
Соотношение сторон : 4:3
Частота кадров : 25,000 кадров/сек
Цветовое пространство : YUV
Субдискретизация насыщенности : 4:2:0
Битовая глубина : 8 бит
Тип развёртки : Прогрессивная
Метод сжатия : С потерями
Бит/(Пиксели*Кадры) : 0.202
Размер потока : 1,27 Гбайт (93%)
Библиотека кодирования : XviD 1.2.1 (UTC 2008-12-04)
Аудио
Идентификатор : 1
Формат : MPEG Audio
Версия формата : Version 1
Профиль формата : Layer 3
Идентификатор кодека : 55
Идентификатор кодека/Подсказка : MP3
Продолжительность : 1 ч. 41 м.
Вид битрейта : Постоянный
Битрейт : 128 Кбит/сек
Каналы : 2 канала
Частота : 44,1 КГц
Метод сжатия : С потерями
Размер потока : 93,1 Мбайт (7%)
Выравнивание : Разделение по промежуткам
Продолжительность промежутка : 40 мс. (1,00 видеокадр)
Время предзагрузки промежутка : 500 мс.
Библиотека кодирования : LAME3.99r
Настройки программы : -m s -V 4 -q 2 -lowpass 17 -b 128

Скриншоты

Альтернативный хост




Показать сообщения:    

Текущее время: 07-Дек 21:25

Часовой пояс: UTC + 3


Вы не можете начинать темы
Вы не можете отвечать на сообщения
Вы не можете редактировать свои сообщения
Вы не можете удалять свои сообщения
Вы не можете голосовать в опросах
Вы не можете прикреплять файлы к сообщениям
Вы не можете скачивать файлы