Улица Шолом-Алейхема, дом 40 (Александр Товстоногов, Надежда Марусалова (Иваненкова)) [1987 г., драма, фильм-спектакль, SATip] Московский драматический театр им. К.С.Станиславского


 

[Цитировать]

Улица Шолом-Алейхема, дом 40 Название театра: Московский драматический театр им. К.С.Станиславского
Жанр: драма, фильм-спектакль.
Год выпуска: 1987.
Продолжительность: 02:49:03.
Режиссеры: заслуженный деятель искусств Грузинской ССР Александр Товстоногов, Надежда Марусалова (Иваненкова).
Действующие лица и исполнители:
Роза - народная артистка РСФСР Римма Быкова,
Марголин - заслуженный артист РСФСР Юрий Мальковский,
Борис - заслуженный артист РСФСР Леонид Сатановский,
Леонид - Владимир Коренев,
Петрук - Вячеслав Кутаков,
Женя - Елена Клищевская,
Федор - Николай Стоцкий,
Смугленко - Нонна Мейер,
Барабанов - Александр Горбатов,
Площанская - заслуженная артистка РСФСР Надежда Животова,
Суня - Владимир Ломизов,
Жорик - Вячеслав Мищенко,
Котов - Сергей Ляхницкий,
Муж - Леонид Зверинцев,
Жена - Людмила Розанова.
Описание:
Действие происходит в Одессе в 1970-е годы.
Одесситка Роза, мать семейства и хозяйка дома, прощается со Двором, в котором прошла вся жизнь, потому что ее сыновья вздумали уехать в Израиль и забрать с собой стариков - мать и отца. Убежденный патриот, фронтовик Семен Марголин готов проклясть детей за такое предательство, но с помощью мамы Розы его как-то удается подвигнуть на переезд. Сыновья Розы и Семена давно уже взрослые, состоявшиеся люди. Оба сделали карьеру в Москве. Старший Борис - крупный ученый-физик, младший Леонид - талантливый и амбициозный хирург. Он главный инициатор отъезда. Он цинично использует то доверие, что питает мать к старшему брату, заставляет Бориса постепенно склонять стариков к мысли о переезде. Мать семейства Роза пережила еврейские погромы, войну, голод и холод, но никогда у нее не было времени отчаиваться - надо было в любых условиях кормить семью, учить и лечить детей. Она покоряется воле детей не потому, что у нее нет своей, а просто потому, что ее долг - быть рядом с родными, охранять их душевный покой, создавать вокруг уют. Но решение об отъезде для семества Марголиных оборачивается трагедией.

Дополнительная информация:
Страна: СССР .
Выпущено: Главная редакция литературно-драматических программ ЦТ.
Режиссер спектакля: заслуженный деятель искусств Грузинской ССР Александр Товстоногов.
Автор: Аркадий Ставицкий.
Художники: Никита Ткачук, Виктор Лесков.
Режиссер фильма: Надежда Марусалова (Иваненкова).
Операторы: Андрей Тюпкин, Евгений Павлов.
Премьера: 21 сентября 1987 года (ТВ).


Релиз

Качество: SATRip
Формат: AVI
Видео:..704x528 (1.33:1), 25 fps, XviD MPEG-4 ~1095 kbps avg, 0.12 bit/pixel
Аудио:..44.100 kHz, MPEG Layer 3, 2 ch, ~128.00 kbps avg

Отчет Media Info

Общее
Полное имя : Ulica.Sholom.Aleihema.dom.40_Teatr.im.Stanislavskogo.1987.XviD.SATRip.fenixclub.avi
Формат : AVI
Формат/Информация : Audio Video Interleave
Размер файла : 1,46 Гбайт
Продолжительность : 2 ч. 49 м.
Общий поток : 1233 Кбит/сек
Программа кодирования : VirtualDubModRus 1.5.10.2 (build 2542/release)
Библиотека кодирования : VirtualDub build 34753/release
Видео
Идентификатор : 0
Формат : MPEG-4 Visual
Профиль формата : Advanced Simple@L5
Параметр BVOP формата : 2
Параметр QPel формата : Нет
Параметр GMC формата : Без точки перехода
Параметр матрицы формата : Default (H.263)
Режим смешивания : Сжатый битовый поток
Идентификатор кодека : XVID
Идентификатор кодека/Подсказка : XviD
Продолжительность : 2 ч. 49 м.
Битрейт : 1096 Кбит/сек
Ширина : 704 пикселя
Высота : 528 пикселей
Соотношение сторон : 4:3
Частота кадров : 25,000 кадров/сек
Цветовое пространство : YUV
Субдискретизация насыщенности : 4:2:0
Битовая глубина : 8 бит
Тип развёртки : Прогрессивная
Метод сжатия : С потерями
Бит/(Пиксели*Кадры) : 0.118
Размер потока : 1,29 Гбайт (89%)
Библиотека кодирования : XviD 1.2.1 (UTC 2008-12-04)
Аудио
Идентификатор : 1
Формат : MPEG Audio
Версия формата : Version 1
Профиль формата : Layer 3
Режим : Joint stereo
Расширение режима : MS Stereo
Идентификатор кодека : 55
Идентификатор кодека/Подсказка : MP3
Продолжительность : 2 ч. 49 м.
Вид битрейта : Постоянный
Битрейт : 128 Кбит/сек
Каналы : 2 канала
Частота : 44,1 КГц
Метод сжатия : С потерями
Размер потока : 155 Мбайт (10%)
Выравнивание : Разделение по промежуткам
Продолжительность промежутка : 40 мс. (1,00 видеокадр)
Время предзагрузки промежутка : 500 мс.
Библиотека кодирования : LAME3.99.5

Скриншоты


Альтернативный хост





Показать сообщения:    

Текущее время: 03-Дек 16:37

Часовой пояс: UTC + 3


Вы не можете начинать темы
Вы не можете отвечать на сообщения
Вы не можете редактировать свои сообщения
Вы не можете удалять свои сообщения
Вы не можете голосовать в опросах
Вы не можете прикреплять файлы к сообщениям
Вы не можете скачивать файлы