Карлсон вернулся (Николай Коляда) [2012 г., Музыкальная сказка, SATRip] Коляда-театр, г. Екатеринбург


 

[Цитировать]

Карлсон вернулся Название театра: Коляда-театр, г. Екатеринбург.
Жанр: Музыкальная сказка для детей от трёх лет.
Год выпуска: 2012.
Продолжительность: 01:10:40.
Режиссер: Николай Коляда.
Действующие лица и исполнители:
Малыш – Ксения Копарулина,
Карлсон – заслуженный артист России Сергей Фёдоров,
Фрекен Бок – Сергей Колесов.
Описание:
Знаменитая сказка Астрид Линдгрен в переложении актёров "Коляда-Театра" превратилась в праздник непослушания. Карлсон прилетает к Малышу, чтобы навести полный порядок, поесть плюшек, пропылесосить комнату Малыша, поиграть с Крысой Гойко Митич (в спектакле играет живая ручная крыса по имени Гойко!), выяснить отношения с Фрекен Бок.
Впрочем, невозможно рассказать коротко, что только ни придумывает этот проказник по имени Карлсон, которого вообще зовут "Детство".

Дополнительная информация:
Страна: Россия .
Выпущено: Коляда-театр, © Культура.рф.
Автор: Астрид Линдгрен.
Автор пьесы постановка и сценография: Николай Коляда.

.... О спектакле.
Релиз

Качество: SATRip
Формат: AVI
Видео:..720x400 (1.80:1), 25 fps, XviD MPEG-4 ~1248 kbps avg, 0.17 bit/pixel
Аудио:..44.100 kHz, MPEG Layer 3, 2 ch, ~128.00 kbps avg

Отчет Media Info

Общее
Полное имя : Karlson.vernulsya_Kolyada-teatr.2012.XviD.SATRip.fenixclub.avi
Формат : AVI
Формат/Информация : Audio Video Interleave
Размер файла : 701 Мбайт
Продолжительность : 1 ч. 10 м.
Общий поток : 1386 Кбит/сек
Программа кодирования : VirtualDubModRus 1.5.10.2 (build 2542/release)
Библиотека кодирования : VirtualDub build 34753/release
Видео
Идентификатор : 0
Формат : MPEG-4 Visual
Профиль формата : Advanced Simple@L5
Параметр BVOP формата : 2
Параметр QPel формата : Нет
Параметр GMC формата : Без точки перехода
Параметр матрицы формата : Default (H.263)
Режим смешивания : Сжатый битовый поток
Идентификатор кодека : XVID
Идентификатор кодека/Подсказка : XviD
Продолжительность : 1 ч. 10 м.
Битрейт : 1249 Кбит/сек
Ширина : 720 пикселей
Высота : 400 пикселей
Соотношение сторон : 16:9
Частота кадров : 25,000 кадров/сек
Цветовое пространство : YUV
Субдискретизация насыщенности : 4:2:0
Битовая глубина : 8 бит
Тип развёртки : Прогрессивная
Метод сжатия : С потерями
Бит/(Пиксели*Кадры) : 0.173
Размер потока : 631 Мбайт (90%)
Библиотека кодирования : XviD 1.2.1 (UTC 2008-12-04)
Аудио
Идентификатор : 1
Формат : MPEG Audio
Версия формата : Version 1
Профиль формата : Layer 3
Режим : Joint stereo
Расширение режима : MS Stereo
Идентификатор кодека : 55
Идентификатор кодека/Подсказка : MP3
Продолжительность : 1 ч. 10 м.
Вид битрейта : Постоянный
Битрейт : 128 Кбит/сек
Каналы : 2 канала
Частота : 44,1 КГц
Метод сжатия : С потерями
Размер потока : 64,7 Мбайт (9%)
Выравнивание : Разделение по промежуткам
Продолжительность промежутка : 40 мс. (1,00 видеокадр)
Время предзагрузки промежутка : 500 мс.
Библиотека кодирования : LAME3.99.5

Скриншоты

Альтернативный хост




Показать сообщения:    

Текущее время: 10-Дек 15:49

Часовой пояс: UTC + 3


Вы не можете начинать темы
Вы не можете отвечать на сообщения
Вы не можете редактировать свои сообщения
Вы не можете удалять свои сообщения
Вы не можете голосовать в опросах
Вы не можете прикреплять файлы к сообщениям
Вы не можете скачивать файлы