Торквато Тассо (Андрей Беркутов) [2010 г., драматическое представление, TVRip] Государственный музей А.С. Пушкина


 

[Цитировать]

Торквато ТассоТеатрально-музейный проект.
Государственный музей А.С. Пушкина.

Название театра: Государственный музей А.С. Пушкина.
Год выпуска: 2010.
Жанр: драматическое представление.
Продолжительность: 02:11:26.
Режиссер: Андрей Беркутов.
Действующие лица и исполнители:
Альфонс II, герцог Феррарский - заслуженный артист России Владимир Большов (театр "Сатирикон"),
Леонора д'Эсте, сестра герцога - Ольга Кузина (театр п/р Джигарханяна),
Леонора Санвитале графиня Скандиано - Алла Довлатова,
Торквато Тассо - Алексей Завьялов (театр Вахтангова),
Антонио Монтекатино, государственный секретарь - Вадим Пожарский (театр Российской Армии),
Арфистка - Марина Громова.
О спектакле:
Государственный музей А.С.Пушкина впервые в России предпринял попытку сценического воплощения стихотворной драмы Гёте в блистательном переводе Сергея Соловьёва. Пьеса Гёте "Торквато Тассо", написанная в 1789 году, – замечательное творение в стиле классицизма. Действие происходит в замке Бельригуардо в эпоху Возрождения.
Творения и жизнь Тассо, претерпевшего столкновения с властьимущими, испытавшего по легенде несчастную любовь, объявленного сумасшедшим и заключённого на семь лет в госпиталь, привлекали внимание великих современников Пушкина: Байрона, Гёте, Листа, Россини.
Молодой поэт Торквато Тассо, нуждаясь в покровительстве и денежной поддержке знатных меценатов, пытается прижиться при дворе герцога Феррары Альфонса II и влюбляется в принцессу, сестру герцога. Конфликт таланта с окружающей средой приводит к тому, что поэта помещают в дом для умалишенных. Сам Гете сформулировал конфликт своей драмы, как "диспропорция между талантом и жизнью".

Дополнительная информация:
Страна: Россия .
Автор: Иоган-Вольфганг Гете.
Перевод Сергея Соловьева.
Сценическая версия и постановка: Андрей Беркутов.
Сценография: Борис Краснов, Павел Оринянский.
Костюмы Александры Тумашовой по мотивам живописи Леонардо да Винчи, Рафаэля Санти и Рустама Хамдамова.
Музыкальное оформление: Максим Берестов.
Хореография: Андрис Лиепа.
Художник по свету: Александр Кельганов.
Стилист: Валерий Панкрашев.
В спектакле звучат фрагменты симфонической поэмы Ференца Листа "Тассо. Жалоба и Триумф".
Руководитель проекта: лауреат Государственной премии России Евгений Богатырев.
Премьера спектакля состоялась: в 2004 году.

О спектакле.
Релиз

Качество видео:...TVRip
Формат:.................AVI
Видео:..640x480 (1.33:1), 25 fps, XviD MPEG-4 ~1342 kbps avg, 0.17 bit/pixel
Аудио:..44.100 kHz, MPEG Layer 3, 2 ch, ~128.00 kbps avg

Отчет Media Info

General
Complete name : Torkvato.Tasso_Gosudarstvennyj.muzej.im.Pushkina.2010.XviD.TVRip.fenixclub.avi
Формат : AVI
Формат/Информация : Audio Video Interleave
Размер файла : 1,36 Гбайт
Продолжительность : 2 ч. 11 м.
Общий поток : 1481 Кбит/сек
Программа кодирования : VirtualDubModRus 1.5.10.2 (build 2542/release)
Библиотека кодирования : VirtualDubMod build 2542/release
Видео
Идентификатор : 0
Формат : MPEG-4 Visual
Профиль формата : Advanced Simple@L5
Параметр BVOP формата : 2
Параметр QPel формата : Нет
Параметр GMC формата : Без точки перехода
Параметр матрицы формата : Default (H.263)
Режим смешивания : Сжатый битовый поток
Идентификатор кодека : XVID
Идентификатор кодека/Подсказка : XviD
Продолжительность : 2 ч. 11 м.
Битрейт : 1343 Кбит/сек
Ширина : 640 пикселей
Высота : 480 пикселей
Соотношение сторон : 4:3
Частота кадров : 25,000 кадров/сек
Цветовое пространство : YUV
Субдискретизация насыщенности : 4:2:0
Битовая глубина : 8 бит
Тип развёртки : Прогрессивная
Метод сжатия : С потерями
Бит/(Пиксели*Кадры) : 0.175
Размер потока : 1,23 Гбайт (91%)
Библиотека кодирования : XviD 1.2.1 (UTC 2008-12-04)
Аудио
Идентификатор : 1
Формат : MPEG Audio
Версия формата : Version 1
Профиль формата : Layer 3
Идентификатор кодека : 55
Идентификатор кодека/Подсказка : MP3
Продолжительность : 2 ч. 11 м.
Вид битрейта : Постоянный
Битрейт : 128 Кбит/сек
Каналы : 2 канала
Частота : 44,1 КГц
Метод сжатия : С потерями
Размер потока : 120 Мбайт (9%)
Выравнивание : Разделение по промежуткам
Продолжительность промежутка : 40 мс. (1,00 видеокадр)
Время предзагрузки промежутка : 500 мс.
Библиотека кодирования : LAME3.99r
Настройки программы : -m s -V 4 -q 2 -lowpass 17 -b 128

Скриншоты

Альтернативный хост




Показать сообщения:    

Текущее время: 10-Дек 02:16

Часовой пояс: UTC + 3


Вы не можете начинать темы
Вы не можете отвечать на сообщения
Вы не можете редактировать свои сообщения
Вы не можете удалять свои сообщения
Вы не можете голосовать в опросах
Вы не можете прикреплять файлы к сообщениям
Вы не можете скачивать файлы