Театральный Альманах "Любовь" [2013 г., альманах, SATRip] Театральный центр им. Вс.Мейерхольда


 

[Цитировать]

Театральный Альманах "Любовь"Название театра: Театральный центр им. Вс.Мейерхольда.
Год выпуска: 2013.
Жанр: альманах.
Продолжительность: 01:54:15.
Участники:
Баскаков Артём, Белоусова Татьяна, Берковия Евгения, Грудович Донатас, Зальцман Галина, Коломеец Антон, Корешков Егор, Крапивина Марина, Ловянникова Аля, Логачёв Алексей, Патлай Анастасия, Самуйлова Виталия, Соротокина Ольга, Стадников Андрей, Стрижак Любовь, Фесак Рустем, Цзин Валентин, Черепанов Глеб.
О спектакле:
На большой сцене Центра им. Вс. Мейерхольда прошел тематический фестиваль короткометражных спектаклей "Театральный альманах".
Все спектакли фестиваля, хронометраж которых по регламенту не превышает 20 минут, созданы специально для проекта и являются театральными высказываниями на предложенную тему в пространстве одного вечера и одной сцены. Специально для фестиваля писались пьесы, музыка, записывались видеозаписи. В этот раз была выбрана тема "Любовь". Участники рассуждали на языке театра и сцены о том, что для них любовь сегодня и какой смысл несёт для них сейчас это слово.

Дополнительная информация:
Страна: Россия .
Выпущено: © Телеканал "Театр".
Продюсерская группа «Vottebe».
Премьера состоялась 27 октября 2012 года

О спектакле.
Релиз
Огромное спасибо Доброму человеку за предоставленый материал!!!
Качество видео:...SATRip
Формат:.................AVI
Видео:..640x480 (1.33:1), 25 fps, XviD MPEG-4 ~1570 kbps avg, 0.20 bit/pixel
Аудио:..44.100 kHz, MPEG Layer 3, 2 ch, ~128.00 kbps avg

Отчет Media Info

General
Complete name : Teatral'nyj.almanah.Lyubov_Teatral'nyj.centr.im.Mejerhol'da.2013.XviD.SATRip.fenixclub.avi
Формат : AVI
Формат/Информация : Audio Video Interleave
Размер файла : 1,36 Гбайт
Продолжительность : 1 ч. 54 м.
Общий поток : 1709 Кбит/сек
Программа кодирования : VirtualDubModRus 1.5.10.2 (build 2542/release)
Библиотека кодирования : VirtualDubMod build 2542/release
Видео
Идентификатор : 0
Формат : MPEG-4 Visual
Профиль формата : Advanced Simple@L5
Параметр BVOP формата : 2
Параметр QPel формата : Нет
Параметр GMC формата : Без точки перехода
Параметр матрицы формата : Default (H.263)
Режим смешивания : Сжатый битовый поток
Идентификатор кодека : XVID
Идентификатор кодека/Подсказка : XviD
Продолжительность : 1 ч. 54 м.
Битрейт : 1571 Кбит/сек
Ширина : 640 пикселей
Высота : 480 пикселей
Соотношение сторон : 4:3
Частота кадров : 25,000 кадров/сек
Цветовое пространство : YUV
Субдискретизация насыщенности : 4:2:0
Битовая глубина : 8 бит
Тип развёртки : Прогрессивная
Метод сжатия : С потерями
Бит/(Пиксели*Кадры) : 0.205
Размер потока : 1,25 Гбайт (92%)
Библиотека кодирования : XviD 1.2.1 (UTC 2008-12-04)
Аудио
Идентификатор : 1
Формат : MPEG Audio
Версия формата : Version 1
Профиль формата : Layer 3
Идентификатор кодека : 55
Идентификатор кодека/Подсказка : MP3
Продолжительность : 1 ч. 54 м.
Вид битрейта : Постоянный
Битрейт : 128 Кбит/сек
Каналы : 2 канала
Частота : 44,1 КГц
Метод сжатия : С потерями
Размер потока : 105 Мбайт (7%)
Выравнивание : Разделение по промежуткам
Продолжительность промежутка : 40 мс. (1,00 видеокадр)
Время предзагрузки промежутка : 500 мс.
Библиотека кодирования : LAME3.99r
Настройки программы : -m s -V 4 -q 2 -lowpass 17 -b 128

Скриншоты

Альтернативный хост




Показать сообщения:    

Текущее время: 05-Дек 11:34

Часовой пояс: UTC + 3


Вы не можете начинать темы
Вы не можете отвечать на сообщения
Вы не можете редактировать свои сообщения
Вы не можете удалять свои сообщения
Вы не можете голосовать в опросах
Вы не можете прикреплять файлы к сообщениям
Вы не можете скачивать файлы