Правда - хорошо, а счастье - лучше (Сергей Женовач, Игорь Ларин) [2005, комедия, DVB] Государственный академический Малый театр


 

[Цитировать]

Правда - хорошо, а счастье - лучше
Запись сделана и любезно предоставлена коллегой ItarTass
Название театра: Государственный академический Малый театр
Жанр: комедия
Год выпуска: 2005
Продолжительность: 01:19:01 + 00:31:31
Режиссёр: Сергей Женовач, Игорь Ларин
В ролях: Евгения Глушенко, Людмила Полякова, Василий Бочкарёв, Сергей Вещёв, Ольга Жевакина, Лариса Кичанова, Александр Клюквин, Виктор Низовой, Глеб Подгородинский
Описание: По одноименной пьесе А.Н. Островского.
История о яблоневом саде, непреложно свидетельствующая о том, что счастье есть, и что есть в наших душах способность быть счастливыми. И недаром добрая нянька, помогающая влюбленным, носит "говорящее" имя — Филицата, то есть "счастье".
Доп. информация: Запись потока *.ts со спутника EUTELSAT 36A/B, 36° в.д., ремукс в *.mpg программой VideoReDo.
Качество видео: DVB
Формат видео: MPEG-РS
Видео: 720(768)x576 (4 : 3), 25,000 кадров/сек, 3322 Кбит/сек
Аудио: MPEG Audio, 48,0 КГц, 192 Кбит/сек, 2 канала

MediaInfo

Общее
Полное имя : H:\Torrent\Правда - хорошо, а счастье лучше\Правда - хорошо, а счастье лучше (2005)(DVB)Kultura часть 2.mpg
Формат : MPEG-PS
Размер файла : 809 Мбайт
Продолжительность : 31 м.
Режим общего битрейта : Переменный
Общий поток : 3585 Кбит/сек
Видео
Идентификатор : 224 (0xE0)
Формат : MPEG Video
Версия формата : Version 2
Профиль формата : Main@Main
Параметр BVOP формата : Да
Параметр матрицы формата : Выборочная
Параметр GOP формата : Variable
Продолжительность : 31 м.
Вид битрейта : Переменный
Битрейт : 3322 Кбит/сек
Максимальный битрейт : 15,0 Мбит/сек
Ширина : 720 пикселей
Высота : 576 пикселей
Соотношение сторон : 4:3
Частота кадров : 25,000 кадров/сек
Стандарт вещания : PAL
Цветовое пространство : YUV
Субдискретизация насыщенности : 4:2:0
Битовая глубина : 8 бит
Тип развёртки : Чересстрочная
Порядок развёртки : Верхнее поле первое
Метод сжатия : С потерями
Бит/(Пиксели*Кадры) : 0.320
Временной код первого кадра : 00:00:00:00
Оригинал временного кода : Group of pictures header
Размер потока : 749 Мбайт (93%)
Аудио
Идентификатор : 192 (0xC0)
Формат : MPEG Audio
Версия формата : Version 1
Профиль формата : Layer 2
Продолжительность : 31 м.
Вид битрейта : Постоянный
Битрейт : 192 Кбит/сек
Каналы : 2 канала
Частота : 48,0 КГц
Метод сжатия : С потерями
Размер потока : 43,3 Мбайт (5%)
Общее
Полное имя : H:\Torrent\Правда - хорошо, а счастье лучше\Правда - хорошо, а счастье лучше (2005)(DVB)Kultura часть 1.mpg
Формат : MPEG-PS
Размер файла : 2,06 Гбайт
Продолжительность : 1 ч. 19 м.
Режим общего битрейта : Переменный
Общий поток : 3732 Кбит/сек
Видео
Идентификатор : 224 (0xE0)
Формат : MPEG Video
Версия формата : Version 2
Профиль формата : Main@Main
Параметр BVOP формата : Да
Параметр матрицы формата : Выборочная
Параметр GOP формата : Variable
Продолжительность : 1 ч. 19 м.
Вид битрейта : Переменный
Битрейт : 3466 Кбит/сек
Максимальный битрейт : 15,0 Мбит/сек
Ширина : 720 пикселей
Высота : 576 пикселей
Соотношение сторон : 4:3
Частота кадров : 25,000 кадров/сек
Стандарт вещания : PAL
Цветовое пространство : YUV
Субдискретизация насыщенности : 4:2:0
Битовая глубина : 8 бит
Тип развёртки : Чересстрочная
Порядок развёртки : Верхнее поле первое
Метод сжатия : С потерями
Бит/(Пиксели*Кадры) : 0.334
Временной код первого кадра : 00:00:00:00
Оригинал временного кода : Group of pictures header
Размер потока : 1,91 Гбайт (93%)
Аудио
Идентификатор : 192 (0xC0)
Формат : MPEG Audio
Версия формата : Version 1
Профиль формата : Layer 2
Продолжительность : 1 ч. 19 м.
Вид битрейта : Постоянный
Битрейт : 192 Кбит/сек
Каналы : 2 канала
Частота : 48,0 КГц
Метод сжатия : С потерями
Размер потока : 109 Мбайт (5%)

Скриншот с названием постановки




Показать сообщения:    

Текущее время: 04-Дек 04:59

Часовой пояс: UTC + 3


Вы не можете начинать темы
Вы не можете отвечать на сообщения
Вы не можете редактировать свои сообщения
Вы не можете удалять свои сообщения
Вы не можете голосовать в опросах
Вы не можете прикреплять файлы к сообщениям
Вы не можете скачивать файлы