Дядя Ваня (Римас Туминас) [2010, драма, DVB, AVC] Государственный академический театр им. Евг. Вахтангова


 

[Цитировать]

Дядя Ваня
Название театра: Государственный академический театр им. Евг. Вахтангова
Жанр: драма
Год выпуска: 2010
Продолжительность: 01:24:46 + 01:08:48
Режиссёр: Римас Туминас
В ролях: Сергей Маковецкий, Владимир Симонов, Анна Дубровская, Владимир Вдовиченков, Евгения Крегжде, Людмила Максакова
Описание: Знаменитая пьеса А.П. Чехова в неожиданной постановке художественного руководителя театра им. Вахтангова Римаса Туминаса. Столь хорошо знакомых персонажей здесь узнать не так-то просто, и даже известные чеховские слова, которые, кажется, знаешь чуть ли не наизусть, звучат совершенно непривычно. Режиссер не переписал текст, не сократил его, но прочел его как с чистого листа. В неуютном, холодном, необжитом доме под звенящую, "надмирную" музыку актеры создают свои блистательные, очень точные и необычные по рисунку, работы. Дядя Ваня Сергея Маковецкого - старик и одновременно ребенок, трогательный, несуразный и косноязычный. Ложно-многозначительный Серебряков Владимира Симонова с цирковыми припрыжками и ужимками. Елена Андреевна Анны Дубровской - злая красавица, утомленная бессмысленным и бесплодным вниманием к своей красоте. И, наверное, одно из самых важных открытий спектакля - Евгения Крегжде в роли Сони, страстная, восторженная и трагичная…
Спектакль - лауреат премии "Хрустальная Турандот" в номинации "Лучший спектакль сезона 2009 - 2010", лауреат Международной театральной премии имени Станиславского (2010).
Доп. информация:
Запись потока *.ts со спутника ABS-2, 75° в.д., ремукс в *.mkv программой VideoReDo.
Качество видео: DVB
Формат видео: MKV
Видео: Advanced Video Codec, 720(768)x576 (4:3), 25,000 кадров/сек, 3087 Кбит/сек
Аудио: MPEG Audio, 48,0 КГц, 192 Кбит/сек, 2 канала

MediaInfo

Общее
Уникальный идентификатор : 301594729208325791000721456998994499951 (0xE2E508317D9B6F6586A62DF27729596F)
Полное имя : D:\Torrent\ДЯДЯ ВАНЯ\ДЯДЯ ВАНЯ 1 (Kultura).mkv
Формат : Matroska
Версия формата : Version 2
Размер файла : 1,98 Гбайт
Продолжительность : 1 ч. 24 м.
Общий поток : 3345 Кбит/сек
Программа кодирования : Lavf52.64.2
Библиотека кодирования : Lavf52.64.2
Видео
Идентификатор : 1
Формат : AVC
Формат/Информация : Advanced Video Codec
Профиль формата : High@L3.0
Параметр CABAC формата : Да
Параметр ReFrames формата : 4 кадра
Идентификатор кодека : V_MPEG4/ISO/AVC
Продолжительность : 1 ч. 24 м.
Битрейт : 3087 Кбит/сек
Ширина : 720 пикселей
Высота : 576 пикселей
Соотношение сторон : 4:3
Соотношение сторон в оригинале : 4:3
Режим частоты кадров : Постоянный
Частота кадров : 25,000 кадров/сек
Стандарт вещания : PAL
Цветовое пространство : YUV
Субдискретизация насыщенности : 4:2:0
Битовая глубина : 8 бит
Тип развёртки : MBAFF
Бит/(Пиксели*Кадры) : 0.298
Размер потока : 1,83 Гбайт (92%)
Default : Да
Forced : Нет
Аудио
Идентификатор : 2
Формат : MPEG Audio
Версия формата : Version 1
Профиль формата : Layer 2
Идентификатор кодека : A_MPEG/L2
Идентификатор кодека/Подсказка : MP2
Продолжительность : 1 ч. 24 м.
Вид битрейта : Постоянный
Битрейт : 192 Кбит/сек
Каналы : 2 канала
Частота : 48,0 КГц
Метод сжатия : С потерями
Размер потока : 116 Мбайт (6%)
Язык : English
Default : Да
Forced : Нет
Общее
Уникальный идентификатор : 301811700204761027861463542160069495789 (0xE30ED1B07A24F9A3A78FFD2D6C900BED)
Полное имя : D:\Torrent\ДЯДЯ ВАНЯ\ДЯДЯ ВАНЯ 2 (Kultura).mkv
Формат : Matroska
Версия формата : Version 2
Размер файла : 1,61 Гбайт
Продолжительность : 1 ч. 8 м.
Общий поток : 3345 Кбит/сек
Программа кодирования : Lavf52.64.2
Библиотека кодирования : Lavf52.64.2
Видео
Идентификатор : 1
Формат : AVC
Формат/Информация : Advanced Video Codec
Профиль формата : High@L3.0
Параметр CABAC формата : Да
Параметр ReFrames формата : 4 кадра
Идентификатор кодека : V_MPEG4/ISO/AVC
Продолжительность : 1 ч. 8 м.
Битрейт : 3087 Кбит/сек
Ширина : 720 пикселей
Высота : 576 пикселей
Соотношение сторон : 4:3
Соотношение сторон в оригинале : 4:3
Режим частоты кадров : Постоянный
Частота кадров : 25,000 кадров/сек
Стандарт вещания : PAL
Цветовое пространство : YUV
Субдискретизация насыщенности : 4:2:0
Битовая глубина : 8 бит
Тип развёртки : MBAFF
Бит/(Пиксели*Кадры) : 0.298
Размер потока : 1,48 Гбайт (92%)
Default : Да
Forced : Нет
Аудио
Идентификатор : 2
Формат : MPEG Audio
Версия формата : Version 1
Профиль формата : Layer 2
Режим : Joint stereo
Расширение режима : Intensity Stereo + MS Stereo
Идентификатор кодека : A_MPEG/L2
Идентификатор кодека/Подсказка : MP2
Продолжительность : 1 ч. 8 м.
Вид битрейта : Постоянный
Битрейт : 192 Кбит/сек
Каналы : 2 канала
Частота : 48,0 КГц
Метод сжатия : С потерями
Размер потока : 94,5 Мбайт (6%)
Язык : English
Default : Да
Forced : Нет

Скриншот с названием постановки




Показать сообщения:    

Текущее время: 11-Дек 01:27

Часовой пояс: UTC + 3


Вы не можете начинать темы
Вы не можете отвечать на сообщения
Вы не можете редактировать свои сообщения
Вы не можете удалять свои сообщения
Вы не можете голосовать в опросах
Вы не можете прикреплять файлы к сообщениям
Вы не можете скачивать файлы