МЫкарамазоВЫ (Виктор Рыжаков, Светлана Иванова) [2011 г., драма, SATRip] Школа-студия МХАТ


 

[Цитировать]

МЫкарамазоВЫ (диалоги)Название театра: Школа-студия МХАТ, Мастерская Константина Райкина.
Жанр: драма.
Год выпуска: 2011.
Продолжительность: 01:32:35.
Режиссеры-педагоги: Виктор Рыжаков, Светлана Иванова.
В ролях:
Владимир Андриянов, Игорь Бычков, Илона Гайшун, Илья Денискин, Анна Карпова, Мария Качалова, Наталья Кузенкина, Але Мухамидияров, Артур Надеин, Владимир Поляков, Анастасия Пронина, Руслан Сабиров, Дмитрий Смирнов, Никита Смольянинов, Данила Стеклов, Максим Стоянов, Михаил Тройник, Юлия Хлынина, Вера Шпак, Ксения Щербакова, Альбина Юсупова.
Описание:
Роман "Братья Карамазовы" здесь выступает попутчиком молодых актеров, тем материалом, погружаясь в который, студент взрослеет и крепнет. Роли не закреплены за артистами, и роман Достоевского играется не в линейном повествовании, а хаотично, рвано, импровизационно, управляясь энергией творческого поиска. Из героев Достоевского Виктор Рыжаков извлекает провинциальный темперамент, простонародность, эмоциональную нестабильность. Актеры, как правило, со сцены не сходят, даже отыграв свой эпизод - поэтому весь строй спектакля напоминает сумеречные посиделки русских мальчиков на завалинке.
Дополнительная информация:
Страна: Россия .
Выпущено: © Телеканал "Театр".
Автор: Федор Достоевский.
Руководитель курса: Константин Райкин.
Премьера спектакля состоялась: 8 октября 2011 года.
Запись с 31-го международного фестиваля ВГИКа.
Награды и номинации:
• 2011 г. - 31-й международный фестиваля ВГИКа. Гран-при фестиваля.
• Фестиваль в Старой Руссе. пПриз "Творческая перспектива".
• III фестиваль студенческих театров в Шанхае (Китай). Приз "Лучший иностранный спектакль".

О спектакле.
Релиз

Качество: SATRip
Формат: AVI
Видео:..640x352 (1.82:1), 25 fps, XviD MPEG-4 ~1544 kbps avg, 0.27 bit/pixel
Аудио:..44.100 kHz, MPEG Layer 3, 2 ch, ~128.00 kbps avg

Отчет Media Info

Общее
Полное имя : MYkaramazoVY_Shkola.studiya.MHAT.2011.XviD.SATRip.fenixclub.avi
Формат : AVI
Формат/Информация : Audio Video Interleave
Размер файла : 1,09 Гбайт
Продолжительность : 1 ч. 32 м.
Общий поток : 1683 Кбит/сек
Программа кодирования : VirtualDubModRus 1.5.10.2 (build 2542/release)
Библиотека кодирования : VirtualDub build 34753/release
Видео
Идентификатор : 0
Формат : MPEG-4 Visual
Профиль формата : Advanced Simple@L5
Параметр BVOP формата : 2
Параметр QPel формата : Нет
Параметр GMC формата : Без точки перехода
Параметр матрицы формата : Default (H.263)
Режим смешивания : Сжатый битовый поток
Идентификатор кодека : XVID
Идентификатор кодека/Подсказка : XviD
Продолжительность : 1 ч. 32 м.
Битрейт : 1545 Кбит/сек
Ширина : 640 пикселей
Высота : 352 пикселя
Соотношение сторон : 16:9
Частота кадров : 25,000 кадров/сек
Цветовое пространство : YUV
Субдискретизация насыщенности : 4:2:0
Битовая глубина : 8 бит
Тип развёртки : Прогрессивная
Метод сжатия : С потерями
Бит/(Пиксели*Кадры) : 0.274
Размер потока : 1023 Мбайт (92%)
Библиотека кодирования : XviD 1.2.1 (UTC 2008-12-04)
Аудио
Идентификатор : 1
Формат : MPEG Audio
Версия формата : Version 1
Профиль формата : Layer 3
Режим : Joint stereo
Расширение режима : MS Stereo
Идентификатор кодека : 55
Идентификатор кодека/Подсказка : MP3
Продолжительность : 1 ч. 32 м.
Вид битрейта : Постоянный
Битрейт : 128 Кбит/сек
Каналы : 2 канала
Частота : 44,1 КГц
Метод сжатия : С потерями
Размер потока : 84,8 Мбайт (8%)
Выравнивание : Разделение по промежуткам
Продолжительность промежутка : 40 мс. (1,00 видеокадр)
Время предзагрузки промежутка : 500 мс.
Библиотека кодирования : LAME3.99.5

Скриншоты

Альтернативный хост




Показать сообщения:    

Текущее время: 08-Дек 03:15

Часовой пояс: UTC + 3


Вы не можете начинать темы
Вы не можете отвечать на сообщения
Вы не можете редактировать свои сообщения
Вы не можете удалять свои сообщения
Вы не можете голосовать в опросах
Вы не можете прикреплять файлы к сообщениям
Вы не можете скачивать файлы