Пионерские чтения. Про Путь [2012 г., Пионерские чтения, SATRip] Журнал "Русский пионер"


 

[Цитировать]

Пионерские чтения. Про ПутьЖанр: Пионерские чтения.
Год выпуска: 2012.
Продолжительность: 01:33:20.
Dедущий: главный редактор журнала Андрей Колесников.
Выступают:
Андрей Бильжо, Андрей Орлов, Владимир Чуров, Алена Свиридова, Маргарита Симоньян, Виктор Ерофеев.
Описание:
Журнал "Русский пионер" проводит свой литературный сезон, в рамках которого стартуют "Пионерские чтения". Авторы будут читать свои материалы из нового номера. Пионерские чтения раскрывают то, что всех интересовало, но до сих пор не было так интересно и профессионально объяснено!
Тема данного выпуска - Путь.
По этому случаю колумнисты и пионеры будут держать свой путь в Центре современной культуры "Гараж", что в Парке Горького. Они обещают рассказать о дорогах, которые они выбирали и выбирают и о том, как они понимают свой путь. Одна из страниц "Чтений" посвящена актрисе Марине Голуб.

Дополнительная информация:
Страна: Россия .
Выпущено: © ЗАО "Телекомпания "Совершенно секретно".
Релиз
Огромное спасибо Доброму человеку за предоставленый материал!!!
Качество видео:...SATRip
Формат:.................AVI
Видео:..720x544 (1.32:1), 25 fps, XviD MPEG-4 ~978 kbps avg, 0.10 bit/pixel
Аудио:..48 kHz, MPEG Layer 3, 2 ch, ~128.00 kbps avg

Отчет MediaInfo

Общее
Полное имя : Pionerskie.chteniya.Pro.Put'.2012.XviD.SATRip.fenixclub.avi
Формат : AVI
Формат/Информация : Audio Video Interleave
Размер файла : 745 Мбайт
Продолжительность : 1 ч. 33 м.
Общий поток : 1116 Кбит/сек
Программа кодирования : VirtualDubModRus 1.5.10.2 (build 2542/release)
Библиотека кодирования : VirtualDub build 34753/release
Видео
Идентификатор : 0
Формат : MPEG-4 Visual
Профиль формата : Advanced Simple@L5
Параметр BVOP формата : 2
Параметр QPel формата : Нет
Параметр GMC формата : Без точки перехода
Параметр матрицы формата : Default (H.263)
Режим смешивания : Сжатый битовый поток
Идентификатор кодека : XVID
Идентификатор кодека/Подсказка : XviD
Продолжительность : 1 ч. 33 м.
Битрейт : 979 Кбит/сек
Ширина : 720 пикселей
Высота : 544 пикселя
Соотношение сторон : 4:3
Частота кадров : 25,000 кадров/сек
Цветовое пространство : YUV
Субдискретизация насыщенности : 4:2:0
Битовая глубина : 8 бит
Тип развёртки : Прогрессивная
Метод сжатия : С потерями
Бит/(Пиксели*Кадры) : 0.100
Размер потока : 653 Мбайт (88%)
Библиотека кодирования : XviD 1.2.1 (UTC 2008-12-04)
Аудио
Идентификатор : 1
Формат : MPEG Audio
Версия формата : Version 1
Профиль формата : Layer 3
Режим : Joint stereo
Расширение режима : MS Stereo
Идентификатор кодека : 55
Идентификатор кодека/Подсказка : MP3
Продолжительность : 1 ч. 33 м.
Вид битрейта : Постоянный
Битрейт : 128 Кбит/сек
Каналы : 2 канала
Частота : 48,0 КГц
Метод сжатия : С потерями
Размер потока : 85,5 Мбайт (11%)
Выравнивание : Разделение по промежуткам
Продолжительность промежутка : 40 мс. (1,00 видеокадр)
Время предзагрузки промежутка : 500 мс.
Библиотека кодирования : LAME3.99.5

Скриншоты

Альтернативный хост




Показать сообщения:    

Текущее время: 05-Дек 23:40

Часовой пояс: UTC + 3


Вы не можете начинать темы
Вы не можете отвечать на сообщения
Вы не можете редактировать свои сообщения
Вы не можете удалять свои сообщения
Вы не можете голосовать в опросах
Вы не можете прикреплять файлы к сообщениям
Вы не можете скачивать файлы