Господа Головлевы (Кирилл Серебренников) [2006, драма, DVB-AVC] МХТ им. Чехова


 

[Цитировать]

Господа Головлевы (2 серии)
Название театра: МХТ им. Чехова
Жанр: драма
Год выпуска: 2006
Продолжительность: 01:23:22 + 01:11:09
Режиссёр: Кирилл Серебренников
В ролях: Арина Петровна Головлева – Алла Покровская,
Владимир Михайлович Головлев – Сергей Сосновский,
Порфирий Головлев – Евгений Миронов,
Степан Головлев – Эдуард Чекмазов,
Павел Головлев – Алексей Кравченко,
Володенька – Сергей Медведев,
Петенька – Юрий Чурсин,
Любинька – Екатерина Соломатина,
Аннинька - Евгения Добровольская,
Евпраксеюшка – Юлия Чебакова,
Улита – Мария Зорина,
Дуняша – Анастасия Дубровская,
Кукишев – Сергей Сосновский,
Бурмистр, Доктор, Люлькин – Олег Тополянский,
Старик Илья – Виктор Кулюхин
Описание: По роману замечательного русского писателя, сатирика, публициста М.Е. Салтыкова-Щедрина (1828 — 1889 гг.) Кириллу Серебренникову удалось сформулировать сегодняшнее, современное звучание этого романа. Начинаешь задумываться, что сегодня это за тип – "Иудушка" в исполнении замечательного актера Жени Миронова.
Доп. информация:
Запись потока *.ts со спутника ABS-2, 75° в.д., ремукс в *.mkv программой VideoReDo.
Качество видео: DVB
Формат видео: MKV
Видео: Advanced Video Codec, 720(768)x576 (4:3), 25,000 кадров/сек, 3087 Кбит/сек
Аудио: MPEG Audio, 48,0 КГц, 192 Кбит/сек, 2 канала

MediaInfo

Общее
Уникальный идентификатор : 5848151245921822223517178959683228216 (0x466501E2BF05D69E0FA822BB8159238)
Полное имя : D:\Torrent\ГОСПОДА ГОЛАВЛЁВЫ\ГОСПОДА ГОЛАВЛЁВЫ 1 (Kultura).mkv
Формат : Matroska
Версия формата : Version 2
Размер файла : 1,95 Гбайт
Продолжительность : 1 ч. 23 м.
Общий поток : 3346 Кбит/сек
Программа кодирования : Lavf52.64.2
Библиотека кодирования : Lavf52.64.2
Видео
Идентификатор : 1
Формат : AVC
Формат/Информация : Advanced Video Codec
Профиль формата : High@L3.0
Параметр CABAC формата : Да
Параметр ReFrames формата : 4 кадра
Параметр GOP формата : M=4, N=32
Идентификатор кодека : V_MPEG4/ISO/AVC
Продолжительность : 1 ч. 23 м.
Битрейт : 3087 Кбит/сек
Ширина : 720 пикселей
Высота : 576 пикселей
Соотношение сторон : 4:3
Соотношение сторон в оригинале : 4:3
Режим частоты кадров : Постоянный
Частота кадров : 25,000 кадров/сек
Стандарт вещания : PAL
Цветовое пространство : YUV
Субдискретизация насыщенности : 4:2:0
Битовая глубина : 8 бит
Тип развёртки : MBAFF
Бит/(Пиксели*Кадры) : 0.298
Размер потока : 1,80 Гбайт (92%)
Default : Да
Forced : Нет
Аудио
Идентификатор : 2
Формат : MPEG Audio
Версия формата : Version 1
Профиль формата : Layer 2
Режим : Joint stereo
Расширение режима : Intensity Stereo + MS Stereo
Идентификатор кодека : A_MPEG/L2
Идентификатор кодека/Подсказка : MP2
Продолжительность : 1 ч. 23 м.
Вид битрейта : Постоянный
Битрейт : 192 Кбит/сек
Каналы : 2 канала
Частота : 48,0 КГц
Метод сжатия : С потерями
Размер потока : 115 Мбайт (6%)
Язык : English
Default : Да
Forced : Нет
Общее
Уникальный идентификатор : 166466870058832235404044483345089142021 (0x7D3C5A5CDCDA1C4EE1195A46B5259D05)
Полное имя : D:\Torrent\ГОСПОДА ГОЛАВЛЁВЫ\ГОСПОДА ГОЛАВЛЁВЫ 2 (Kultura).mkv
Формат : Matroska
Версия формата : Version 2
Размер файла : 1,66 Гбайт
Продолжительность : 1 ч. 11 м.
Общий поток : 3346 Кбит/сек
Программа кодирования : Lavf52.64.2
Библиотека кодирования : Lavf52.64.2
Видео
Идентификатор : 1
Формат : AVC
Формат/Информация : Advanced Video Codec
Профиль формата : High@L3.0
Параметр CABAC формата : Да
Параметр ReFrames формата : 4 кадра
Идентификатор кодека : V_MPEG4/ISO/AVC
Продолжительность : 1 ч. 11 м.
Битрейт : 3087 Кбит/сек
Ширина : 720 пикселей
Высота : 576 пикселей
Соотношение сторон : 4:3
Соотношение сторон в оригинале : 4:3
Режим частоты кадров : Постоянный
Частота кадров : 25,000 кадров/сек
Стандарт вещания : PAL
Цветовое пространство : YUV
Субдискретизация насыщенности : 4:2:0
Битовая глубина : 8 бит
Тип развёртки : MBAFF
Бит/(Пиксели*Кадры) : 0.298
Размер потока : 1,53 Гбайт (92%)
Default : Да
Forced : Нет
Аудио
Идентификатор : 2
Формат : MPEG Audio
Версия формата : Version 1
Профиль формата : Layer 2
Режим : Joint stereo
Расширение режима : Intensity Stereo + MS Stereo
Идентификатор кодека : A_MPEG/L2
Идентификатор кодека/Подсказка : MP2
Продолжительность : 1 ч. 11 м.
Вид битрейта : Постоянный
Битрейт : 192 Кбит/сек
Каналы : 2 канала
Частота : 48,0 КГц
Метод сжатия : С потерями
Размер потока : 97,7 Мбайт (6%)
Язык : English
Default : Да
Forced : Нет

Скриншот с названием постановки




Показать сообщения:    

Текущее время: 18-Янв 02:33

Часовой пояс: UTC + 3


Вы не можете начинать темы
Вы не можете отвечать на сообщения
Вы не можете редактировать свои сообщения
Вы не можете удалять свои сообщения
Вы не можете голосовать в опросах
Вы не можете прикреплять файлы к сообщениям
Вы не можете скачивать файлы