Три мушкетера (Юрий Погребничко) [2013 г., приключения, экранизация, SATRip] Московский театр "Около дома Станиславского"


 

[Цитировать]

Три мушкетера Название театра: Московский театр "Около дома Станиславского".
Год выпуска: 2013.
Жанр: приключения, экранизация.
Продолжительность: 01:37:06.
Режиссер: народный артист России Юрий Погребничко.
В ролях:
Алексей Левинский, Илья Окс, Юрий Погребничко, Мария Погребничко, Дмитрий Богдан, Иван Игнатенко, Сергей Каплунов, Никита Логинов, Элен Касьяник, Виталий Степанов, Марьяна Кирсанова, Александра Тюфтей, Александр Орав, Владимир Богданов, Александр Зотов, Иван Сигорских.
Описание:
Было бы странно предположить, что режиссер Юрий Погребничко, обладающий такой ни на кого не похожей стилистикой, взявшись за роман Дюма, представит на зрительский суд приключенческое полотно. Кто угодно - только не Погребничко. Не тот человек, в чьих спектаклях, по каким бы пьесам или прозаическим произведениям они не шли, фоном будет нищая провинция советских лет, чей быт почти не отделим от быта лагерного, а убожество и безнадега, кажется, никогда не отступят. И вдруг - Дюма.
Спектакль Погребничко - не о Франции XVII века, а о прошлом куда более близком к нам. О советском прошлом, где дворовые мальчишки с деревянными палками в руках нападали на мальчишек из двора другого, в полной уверенности, что шпагами поражают коварных гвардейцев кардинала. О советском прошлом (да, собственно, и не только советском), где те же мальчишки, но уже совсем не молодого возраста режутся в домино и шаркающей походкой бредут в магазин, не замечая окружающей жизни.
И как всегда в спектаклях театра ОКОЛО, много песен и музыки. И она звучит, еще больше забирая зрителя в плен всепоглощающей ностальгии и светлой печали о беззаботном детстве, когда все мальчишки были отважными мушкетерами, а девчонки примеряли на себя платья скромной Констанции или манящей Миледи...

Дополнительная информация:
Страна: Россия .
Выпущено: Московский театр "Около дома Станиславского", Студия фондовых и архивных программ © ГТРК "Культура".
Автор: Александр Дюма.
Художник по костюмам: Надежда Бахвалова.
Хормейстер: Наталья Рожкова.
Фехтование: Андрей Назаренко.

О спектакле.
Релиз
Огромное спасибо Доброму человеку за предоставленый материал!!!

Качество видео:...SATRip
Формат:.................AVI
Видео:..720x400 (1.80:1), 25 fps, XviD MPEG-4 ~1871 kbps avg, 0.26 bit/pixel
Аудио:..44.100 kHz, MPEG Layer 3, 2 ch, ~128.00 kbps avg

Отчет MediaInfo

Общее
Полное имя : Tri.mushketera_Moskovskij.teatr.Okolo.doma.Stanislavskogo.2013.XviD.SATRip.fenixclub.avi
Формат : AVI
Формат/Информация : Audio Video Interleave
Размер файла : 1,36 Гбайт
Продолжительность : 1 ч. 37 м.
Общий поток : 2010 Кбит/сек
Программа кодирования : VirtualDubModRus 1.5.10.2 (build 2542/release)
Библиотека кодирования : VirtualDub build 34753/release
Видео
Идентификатор : 0
Формат : MPEG-4 Visual
Профиль формата : Advanced Simple@L5
Параметр BVOP формата : 2
Параметр QPel формата : Нет
Параметр GMC формата : Без точки перехода
Параметр матрицы формата : Default (H.263)
Режим смешивания : Сжатый битовый поток
Идентификатор кодека : XVID
Идентификатор кодека/Подсказка : XviD
Продолжительность : 1 ч. 37 м.
Битрейт : 1872 Кбит/сек
Ширина : 720 пикселей
Высота : 400 пикселей
Соотношение сторон : 16:9
Частота кадров : 25,000 кадров/сек
Цветовое пространство : YUV
Субдискретизация насыщенности : 4:2:0
Битовая глубина : 8 бит
Тип развёртки : Прогрессивная
Метод сжатия : С потерями
Бит/(Пиксели*Кадры) : 0.260
Размер потока : 1,27 Гбайт (93%)
Библиотека кодирования : XviD 1.2.1 (UTC 2008-12-04)
Аудио
Идентификатор : 1
Формат : MPEG Audio
Версия формата : Version 1
Профиль формата : Layer 3
Режим : Joint stereo
Расширение режима : MS Stereo
Идентификатор кодека : 55
Идентификатор кодека/Подсказка : MP3
Продолжительность : 1 ч. 37 м.
Вид битрейта : Постоянный
Битрейт : 128 Кбит/сек
Каналы : 2 канала
Частота : 44,1 КГц
Метод сжатия : С потерями
Размер потока : 88,9 Мбайт (6%)
Выравнивание : Разделение по промежуткам
Продолжительность промежутка : 40 мс. (1,00 видеокадр)
Время предзагрузки промежутка : 500 мс.
Библиотека кодирования : LAME3.99.5

Скриншоты

Альтернативный хост




Показать сообщения:    

Текущее время: 10-Дек 15:48

Часовой пояс: UTC + 3


Вы не можете начинать темы
Вы не можете отвечать на сообщения
Вы не можете редактировать свои сообщения
Вы не можете удалять свои сообщения
Вы не можете голосовать в опросах
Вы не можете прикреплять файлы к сообщениям
Вы не можете скачивать файлы