Куклы (Валерий Белякович) [2013 г., трагифарс, SATRip] Московский драматический театр им. К.С.Станиславского


 

[Цитировать]

Куклы (2 действия) Название театра: Московский драматический театр им. К.С.Станиславского.
Жанр: Комедия.
Год выпуска: 2013.
Продолжительность: 01:30:25 + 01:18:09.
Режиссеры: Валерий Белякович.
В ролях:
Валерий Белякович, Карина Дымонт, Владлен Михалков, Федор Борисенко, Инна Головина, Максим Деричев, Борис Дергачев, Владимир Долматовский, Роман Дробот, Константин Дудиков, Михаил Инчин, Анна Капалева, Антон Косточкин, Анастасия Ксенофонтова, Максим Кушников, Илья Лукашенко, Сергей Медведев, Дмитрий Мягкий, Евгений Самарин, Евгений Сергеев, Вадим Соколов, Анастасия Фурса, Денис Шалаев.
Описание:
Московский драматический театр Станиславского - это уже шестой театр, где Валерий Белякович ставит спектакль "Куклы". До этого он его ставил в Пензе, Калининграде, Нижним Новгороде, Белгороде и в Московском Театре на Юго-Западе.
По мотивам пьесы Хасинто Грау "Сеньор Пигмалион".
Сеньор Пигмалион, испанец, выросший в Америке, сумел создать совершенных кукол. Они разъезжают по миру, дают представления, общаются с людьми. Но наступает момент, когда куклам кажется, что они превзошли своего создателя. И возникают коллизии, так напоминающие события всех времён. Глава Мадрида, куда приезжает Пигмалион с очередными гастролями, страстно влюбляется в одну из механических артисток. Не в силах совладать с собой, он крадет её - одну миниатюрную куколку - не предполагая, что спасать несчастную пленницу бросятся все творения Пигмалиона.

Дополнительная информация:
Страна: Россия .
Выпущено: Московский драматический театр им. К.С.Станиславского, © Телеканал "Театр".
Автор: Хасинто Грау.
Автор сценической версии и режиссер: Валерий Белякович.

Релиз
Огромное спасибо Доброму человеку за предоставленый материал!!!

Качество: SATRip
Формат: AVI
Видео:..720x400 (1.80:1), 25 fps, XviD MPEG-4 ~1705 kbps avg, 0.24 bit/pixel
Аудио:..48 kHz, MPEG Layer 3, 2 ch, ~128.00 kbps avg

Отчет MediaInfo

1-е действие
Общее
Полное имя : Kukly_Moskovskij.DT.im.Stanislavskogo.(2.dejstviya.iz.2).2013.XviD.SATRip.fenixclub\Kukly_Moskovskij.DT.im.Stanislavskogo.(1-e.dejstvie.iz.2).2013.XviD.SATRip.fenixclub.avi
Формат : AVI
Формат/Информация : Audio Video Interleave
Размер файла : 1,16 Гбайт
Продолжительность : 1 ч. 30 м.
Общий поток : 1844 Кбит/сек
Программа кодирования : VirtualDubModRus 1.5.10.2 (build 2542/release)
Библиотека кодирования : VirtualDub build 34753/release
Видео
Идентификатор : 0
Формат : MPEG-4 Visual
Профиль формата : Advanced Simple@L5
Параметр BVOP формата : 2
Параметр QPel формата : Нет
Параметр GMC формата : Без точки перехода
Параметр матрицы формата : Default (H.263)
Режим смешивания : Сжатый битовый поток
Идентификатор кодека : XVID
Идентификатор кодека/Подсказка : XviD
Продолжительность : 1 ч. 30 м.
Битрейт : 1706 Кбит/сек
Ширина : 720 пикселей
Высота : 400 пикселей
Соотношение сторон : 16:9
Частота кадров : 25,000 кадров/сек
Цветовое пространство : YUV
Субдискретизация насыщенности : 4:2:0
Битовая глубина : 8 бит
Тип развёртки : Прогрессивная
Метод сжатия : С потерями
Бит/(Пиксели*Кадры) : 0.237
Размер потока : 1,08 Гбайт (93%)
Библиотека кодирования : XviD 1.2.1 (UTC 2008-12-04)
Аудио
Идентификатор : 1
Формат : MPEG Audio
Версия формата : Version 1
Профиль формата : Layer 3
Режим : Joint stereo
Идентификатор кодека : 55
Идентификатор кодека/Подсказка : MP3
Продолжительность : 1 ч. 30 м.
Вид битрейта : Постоянный
Битрейт : 128 Кбит/сек
Каналы : 2 канала
Частота : 48,0 КГц
Метод сжатия : С потерями
Размер потока : 82,8 Мбайт (7%)
Выравнивание : Разделение по промежуткам
Продолжительность промежутка : 40 мс. (1,00 видеокадр)
Время предзагрузки промежутка : 500 мс.
Библиотека кодирования : LAME3.99.5
2-е действие
Общее
Полное имя : Kukly_Moskovskij.DT.im.Stanislavskogo.(2.dejstviya.iz.2).2013.XviD.SATRip.fenixclub\Kukly_Moskovskij.DT.im.Stanislavskogo.(2-e.dejstvie.iz.2).2013.XviD.SATRip.fenixclub.avi
Формат : AVI
Формат/Информация : Audio Video Interleave
Размер файла : 1,01 Гбайт
Продолжительность : 1 ч. 18 м.
Общий поток : 1844 Кбит/сек
Программа кодирования : VirtualDubModRus 1.5.10.2 (build 2542/release)
Библиотека кодирования : VirtualDub build 32842/release
Видео
Идентификатор : 0
Формат : MPEG-4 Visual
Профиль формата : Advanced Simple@L5
Параметр BVOP формата : 2
Параметр QPel формата : Нет
Параметр GMC формата : Без точки перехода
Параметр матрицы формата : Default (H.263)
Режим смешивания : Сжатый битовый поток
Идентификатор кодека : XVID
Идентификатор кодека/Подсказка : XviD
Продолжительность : 1 ч. 18 м.
Битрейт : 1706 Кбит/сек
Ширина : 720 пикселей
Высота : 400 пикселей
Соотношение сторон : 16:9
Частота кадров : 25,000 кадров/сек
Цветовое пространство : YUV
Субдискретизация насыщенности : 4:2:0
Битовая глубина : 8 бит
Тип развёртки : Прогрессивная
Метод сжатия : С потерями
Бит/(Пиксели*Кадры) : 0.237
Размер потока : 954 Мбайт (93%)
Библиотека кодирования : XviD 1.2.1 (UTC 2008-12-04)
Аудио
Идентификатор : 1
Формат : MPEG Audio
Версия формата : Version 1
Профиль формата : Layer 3
Режим : Joint stereo
Идентификатор кодека : 55
Идентификатор кодека/Подсказка : MP3
Продолжительность : 1 ч. 18 м.
Вид битрейта : Постоянный
Битрейт : 128 Кбит/сек
Каналы : 2 канала
Частота : 48,0 КГц
Метод сжатия : С потерями
Размер потока : 71,5 Мбайт (7%)
Выравнивание : Разделение по промежуткам
Продолжительность промежутка : 40 мс. (1,00 видеокадр)
Время предзагрузки промежутка : 500 мс.
Библиотека кодирования : LAME3.99.5ЄЄЄЄЄЄЄЄЄЄ

Скриншоты


Альтернативный хост





Показать сообщения:    

Текущее время: 03-Дек 09:49

Часовой пояс: UTC + 3


Вы не можете начинать темы
Вы не можете отвечать на сообщения
Вы не можете редактировать свои сообщения
Вы не можете удалять свои сообщения
Вы не можете голосовать в опросах
Вы не можете прикреплять файлы к сообщениям
Вы не можете скачивать файлы