Игры сновидений (Константин Мохов) [2013 г., Театральные импровизации для взрослых, SATRip] Краснодарский краевой театр кукол


 

[Цитировать]

Игры сновиденийНазвание театра: Краснодарский краевой театр кукол.
Жанр: Театральные импровизации для взрослых.
Год выпуска: 2013.
Продолжительность: 01:37:00.
Автор и режиссер: заслуженый деятель искусств Кубани Константин Мохов.
В ролях:
заслуженная артистка Кубани Анна Сезоненко, Елена Боровичёва, Вера Лукьяненко, Виталий Лобузенко, Дарья Лысякова, Евгений Суманеев, Ольга Хорошева, Дмитрий Часовских.
Описание:
"Я засыпаю все глубже и глубже, сон уносит меня, я оборачиваюсь, и, внутри этого сна, как калейдоскоп раскрывается какой-то другой, еще более яркий сон. Я открываю глаза, просыпаюсь, но оказывается, что я нахожусь в чьем-то чужом сне, прошу прощения, пытаюсь выбраться и тону все глубже…"
Обрывки воспоминаний, искусные узоры снов, душевные порывы!.. Завораживающее, изысканное, таинственное и удивительно доброе путешествие в мир подсознательного, в стихию радости бытия зрители смогут совершить вместе с героями авторского спектакля художественного руководителя Краснодарского краевого театра кукол Константина Мохова "Игры сновидений".

Дополнительная информация:
Страна: Россия .
Выпущено: © Телеканал "Театр", Краснодарский краевой театр кукол.

О спектакле.
Релиз
Огромное спасибо Доброму человеку за предоставленый материал!!!

Качество: SATRip
Формат: AVI
Видео:..704x528 (1.33:1), 25 fps, XviD MPEG-4 ~1872 kbps avg, 0.20 bit/pixel
Аудио:..48 kHz, MPEG Layer 3, 2 ch, ~128.00 kbps avg

Отчет Media Info

Общее
Полное имя : Igry.snovidenij_Krasnodarskij.kraevoj.teatr.kukol.2013.XviD.SATRip.fenixclub.avi
Формат : AVI
Формат/Информация : Audio Video Interleave
Размер файла : 1,36 Гбайт
Продолжительность : 1 ч. 36 м.
Общий поток : 2011 Кбит/сек
Программа кодирования : VirtualDubModRus 1.5.10.2 (build 2542/release)
Библиотека кодирования : VirtualDub build 34753/release
Видео
Идентификатор : 0
Формат : MPEG-4 Visual
Профиль формата : Advanced Simple@L5
Параметр BVOP формата : 2
Параметр QPel формата : Нет
Параметр GMC формата : Без точки перехода
Параметр матрицы формата : Default (H.263)
Режим смешивания : Сжатый битовый поток
Идентификатор кодека : XVID
Идентификатор кодека/Подсказка : XviD
Продолжительность : 1 ч. 36 м.
Битрейт : 1873 Кбит/сек
Ширина : 704 пикселя
Высота : 528 пикселей
Соотношение сторон : 4:3
Частота кадров : 25,000 кадров/сек
Цветовое пространство : YUV
Субдискретизация насыщенности : 4:2:0
Битовая глубина : 8 бит
Тип развёртки : Прогрессивная
Метод сжатия : С потерями
Бит/(Пиксели*Кадры) : 0.202
Размер потока : 1,27 Гбайт (93%)
Библиотека кодирования : XviD 1.2.1 (UTC 2008-12-04)
Аудио
Идентификатор : 1
Формат : MPEG Audio
Версия формата : Version 1
Профиль формата : Layer 3
Режим : Joint stereo
Расширение режима : MS Stereo
Идентификатор кодека : 55
Идентификатор кодека/Подсказка : MP3
Продолжительность : 1 ч. 36 м.
Вид битрейта : Постоянный
Битрейт : 128 Кбит/сек
Каналы : 2 канала
Частота : 48,0 КГц
Метод сжатия : С потерями
Размер потока : 88,8 Мбайт (6%)
Выравнивание : Разделение по промежуткам
Продолжительность промежутка : 40 мс. (1,00 видеокадр)
Время предзагрузки промежутка : 500 мс.

Скриншоты


Альтернативный хост





Показать сообщения:    

Текущее время: 08-Дек 11:01

Часовой пояс: UTC + 3


Вы не можете начинать темы
Вы не можете отвечать на сообщения
Вы не можете редактировать свои сообщения
Вы не можете удалять свои сообщения
Вы не можете голосовать в опросах
Вы не можете прикреплять файлы к сообщениям
Вы не можете скачивать файлы