Синьор Тодеро хозяин (Роберт Стуруа, Виктор Безега) [2007, комедия, DVB] театр "Сатирикон"


 

[Цитировать]

Синьор Тодеро хозяин
Запись сделана и любезно предоставлена коллегой ItarTass
Название театра: театр "Сатирикон"
Жанр: комедия
Год выпуска: 2007
Продолжительность: 01:53:21
Режиссёр: Роберт Стуруа, Виктор Безега
В ролях: Тодеро, старик купец - Константин Райкин,
Пеллегрин, сын Тодеро - Юрий Лахин,
Марколина, жена Пеллегрина - Марина Иванова,
Занетта, дочь Пеллегрина и Марколины - Наталия Рыжих,
Дезидерио, управляющий Тодеро - Алексей Якубов,
Николетто, сын Дезидерио - Сергей Климов,
Чечилия, служанка Марколины - Любовь Тихомирова,
Фортуната, вдова - Лиана Нифонтова,
Менегетто, кузен Фортунаты - Яков Ломкин,
Грегорио, слуга - Александр Журман,
Свидетель - Алексей Бардуков.
Описание: В этом спектакле, как в жизни, - фарс и трагедия рядом, но смешное грустно, а жестокость вызывает смех. Деспотизм - это страсть, и одержимый ею тиран суров и опасен. А когда он живет рядом, в твоей семье, то существование в ней, как на войне... В России пьеса была поставлена впервые.
Доп. информация:
Запись потока *.ts со спутника Ямал 202, 49° в.д., ремукс в *.mpg программой VideoReDo.
Качество видео: DVB
Формат видео: MPEG-PS
Видео: MPEG2 Video, 720x576 (4:3), 25,000 кадров/сек, 5084 Кбит/сек
Аудио: MPEG Audio, 48,0 КГц, 256 Кбит/сек, 2 канала

MediaInfo

Общее
Полное имя : D:\Recordings\Синьор Тодеро хозяин (2007)(DVB)Kultura.mpg
Формат : MPEG-PS
Размер файла : 4,31 Гбайт
Продолжительность : 1 ч. 53 м.
Режим общего битрейта : Переменный
Общий поток : 5448 Кбит/сек
Видео
Идентификатор : 224 (0xE0)
Формат : MPEG Video
Версия формата : Version 2
Профиль формата : Main@Main
Параметр BVOP формата : Да
Параметр матрицы формата : Выборочная
Параметр GOP формата : M=3, N=15
Продолжительность : 1 ч. 53 м.
Вид битрейта : Переменный
Битрейт : 5084 Кбит/сек
Максимальный битрейт : 15,0 Мбит/сек
Ширина : 720 пикселей
Высота : 576 пикселей
Соотношение сторон : 4:3
Частота кадров : 25,000 кадров/сек
Стандарт вещания : PAL
Цветовое пространство : YUV
Субдискретизация насыщенности : 4:2:0
Битовая глубина : 8 бит
Тип развёртки : Чересстрочная
Порядок развёртки : Верхнее поле первое
Метод сжатия : С потерями
Бит/(Пиксели*Кадры) : 0.490
Временной код первого кадра : 00:00:00:00
Оригинал временного кода : Group of pictures header
Размер потока : 4,03 Гбайт (93%)
Аудио
Идентификатор : 192 (0xC0)
Формат : MPEG Audio
Версия формата : Version 1
Профиль формата : Layer 2
Продолжительность : 1 ч. 53 м.
Вид битрейта : Постоянный
Битрейт : 256 Кбит/сек
Каналы : 2 канала
Частота : 48,0 КГц
Метод сжатия : С потерями
Размер потока : 208 Мбайт (5%)

Скриншот с названием постановки




Показать сообщения:    

Текущее время: 08-Дек 05:18

Часовой пояс: UTC + 3


Вы не можете начинать темы
Вы не можете отвечать на сообщения
Вы не можете редактировать свои сообщения
Вы не можете удалять свои сообщения
Вы не можете голосовать в опросах
Вы не можете прикреплять файлы к сообщениям
Вы не можете скачивать файлы