Не все коту масленица (Леонид Хейфец) [2013 г., Сцены из московской жизни, SATRip] Московский академический театр им.Вл.Маяковского


 

[Цитировать]

Не все коту масленицаНазвание театра: Московский академический театр им.Вл.Маяковского.
Год выпуска: 2013.
Жанр: Сцены из московской жизни.
Продолжительность: 01:57:51.
Режиссеры: заслуженный деятель искусств РСФСР, народный артист России Леонид Хейфец.
Действующие лица и исполнители:
Дарья Федосеевна Круглова - Оксана Киселева
Агния - Наталья Палагушкина
Ипполит - Всеволод Макаров
Феона - заслуженная артистка России Майя Полянская
Маланья - Юлия Яновская
Ермил Зотыч Ахов - заслуженный артист России Виктор Запорожский.
О спектакле:
Как быть бедной девушке: выйти замуж за нелюбимого, но богатого старика или за любимого, но нищего молодого человека? Как быть вдове-матери: устроить судьбу дочери или свою собственную? Режиссер Леонид Хейфец уверен, что сцены из московской жизни XIX столетия не потеряли своей актуальности и сегодня.
Дополнительная информация:
Страна: Россия .
Выпущено: © ООО "Альма Матер", © ЗАО "МЕДИА-ТРЕСТ", © по заказу Министерства культуры РФ.
Автор пьесы: Александр Островский.
Художник: заслуженный художник России Валерий Фомин.
Художник по костюмам: Ольга Кулагина.
Режиссер телеверсии: Татьяна Александрова.
Операторы: Вячеслав Рязанов, Сергей Стариков, Антон Чуванов, Тимур Гузаиров, Михаил Кожевников.
Премьера состоялась 20 ноября 2010 года.

О спектакле.
Релиз
Огромное спасибо Доброму человеку за предоставленый материал!!!

Качество видео:...SATRip
Формат:.................AVI
Видео:..720x400 (1.80:1), 25 fps, XviD MPEG-4 ~1518 kbps avg, 0.21 bit/pixel
Аудио:..48 kHz, MPEG Layer 3, 2 ch, ~128.00 kbps avg

Отчет Media Info

General
Complete name : Ne.vse.kotu.maslenica_Moskovskij.AT.im.Mayakovskogo.2013.XviD.SATRip.fenixclub.avi
Формат : AVI
Формат/Информация : Audio Video Interleave
Размер файла : 1,36 Гбайт
Продолжительность : 1 ч. 57 м.
Общий поток : 1657 Кбит/сек
Программа кодирования : VirtualDubModRus 1.5.10.2 (build 2542/release)
Библиотека кодирования : VirtualDub build 34753/release
Видео
Идентификатор : 0
Формат : MPEG-4 Visual
Профиль формата : Advanced Simple@L5
Параметр BVOP формата : 2
Параметр QPel формата : Нет
Параметр GMC формата : Без точки перехода
Параметр матрицы формата : Default (H.263)
Режим смешивания : Сжатый битовый поток
Идентификатор кодека : XVID
Идентификатор кодека/Подсказка : XviD
Продолжительность : 1 ч. 57 м.
Битрейт : 1519 Кбит/сек
Ширина : 720 пикселей
Высота : 400 пикселей
Соотношение сторон : 16:9
Частота кадров : 25,000 кадров/сек
Цветовое пространство : YUV
Субдискретизация насыщенности : 4:2:0
Битовая глубина : 8 бит
Тип развёртки : Прогрессивная
Метод сжатия : С потерями
Бит/(Пиксели*Кадры) : 0.211
Размер потока : 1,25 Гбайт (92%)
Библиотека кодирования : XviD 1.2.1 (UTC 2008-12-04)
Аудио
Идентификатор : 1
Формат : MPEG Audio
Версия формата : Version 1
Профиль формата : Layer 3
Режим : Joint stereo
Расширение режима : MS Stereo
Идентификатор кодека : 55
Идентификатор кодека/Подсказка : MP3
Продолжительность : 1 ч. 57 м.
Вид битрейта : Постоянный
Битрейт : 128 Кбит/сек
Каналы : 2 канала
Частота : 48,0 КГц
Метод сжатия : С потерями
Размер потока : 108 Мбайт (8%)
Выравнивание : Разделение по промежуткам
Продолжительность промежутка : 40 мс. (1,00 видеокадр)
Время предзагрузки промежутка : 500 мс.
Библиотека кодирования : LAME3.99.5ЄЄЄЄЄЄЄЄЄЄ

Скриншоты

Альтернативный хост




Показать сообщения:    

Текущее время: 11-Дек 07:09

Часовой пояс: UTC + 3


Вы не можете начинать темы
Вы не можете отвечать на сообщения
Вы не можете редактировать свои сообщения
Вы не можете удалять свои сообщения
Вы не можете голосовать в опросах
Вы не можете прикреплять файлы к сообщениям
Вы не можете скачивать файлы