Гамлет (Александр Огарёв) [2014 г., трагедия, SATRip] Краснодарский академический театр драмы им. Максима Горького


 

[Цитировать]

Гамлет (2 действия)Название театра: Краснодарский академический театр драмы им. Максима Горького.
Год выпуска: 2014.
Жанр: трагедия.
Продолжительность: 01:33:45 + 01:15:16.
Режиссер: Александр Огарёв.
Действующие лица и исполнители:
Гамлет - Андрей Харенко,
Офелия - Екатерина Крыжановская,
Клавдий - заслуженный артист России Александр Катунов,
Гертруда - заслуженная артистка Кубани Мария Грачева,
Полоний - заслуженный артист России Сергей Калинский,
Горацио - Алексей Мосолов,
Лаэрт - Арсений Фогелев,
Розенкранц - Александр Крюков,
Гильденстерн - Виталий Борисов,
Марцелл - Роман Бурдеев,
Бернардо - Виталий Стеблецов,
Призрак отца Гамлета - народный артист России Анатолий Горгуль,
Могильщик - народный артист России Анатолий Горгуль,
Фортинбрас - Иван Романюк.
Описание:
рагедия Шекспира во все времена привлекала внимание зрителей, и каждое новое поколение открывает в ней свои смысловые и эмоциональные пласты. "Гамлет" Краснодарского театра исследует феномен нереальной, нечеловеческой любви принца Датского к своему отцу. Отец занимает в иерархии духовных ценностей Гамлета место Отца небесного. В жертву этой Любви главный герой готов принести даже отношения с матерью и любимой девушкой. Во имя Любви к отцу Гамлет убивает, и, в конце концов, доводит до разрушения всё уютное датское королевство.
Краснодарский "Гамлет" - это увлекательное путешествие по жанрам. Современными средствами раскрывается эволюция героя. Зритель увидит фантастические полёты Гамлета, водные сны Офелии, остроумные диалоги, весёлые сцены "домашнего театра", путешествие в загробный мир, сцены боёв и многое другое. Диапазон жанров: от мистики и фарса до поэтической лирики и высокой трагедии.

Дополнительная информация:
Страна: Россия .
Выпущено: © Телеканал "Театр".
Автор: Уильям Шекспир.
Хореограф-постановщик: Наталья Шурганова.
В спектакле принимает участие рок-группа "Вдруг".
В музыкальном оформлении спектакля использована композиции:
• «Give All the Love» Niobe (авторы Yvonne Cornelius);
• «Armellodie» Gonzales (автор Jason Charles Beck);
• «Sports, Not Heavy Crime» Xploding Plastix (авторы J.P. Nilsen, H.W. Hagen);
• «Old World» Tin Hat (авторы Tin Hat);
• «Bedtime Story» Younger Brother (авторы S. Postford, B.Vaughn);
• «K. O. D» Tech N9ne (автор Dontez Yates);
• «Life and Death» Balanescu Quartet (автор A. Balanescu);
• «Telephone & Rubber Band» Penguin Café Orchestra (автор S. Jeffes);
• «Cheers Darlin» Damien Rice (автор Damien Ricе);
• «Музыкальная шкатулка» Дмитрий Шостакович;
• «Architektur ist geiselnahme» Einsturzende Neubauten (автор: A. Hacke);
• «House of the Rising Sun» The Animals (авторы The Animals);
• «Море» П. Налич (автор: Пётр Налич);
• «Мне хотелось бы видеть тебя» Борис Гребенщиков (автор Борис Гребенщиков).
Премьера спектакля состоялась: 9 декабря 2011 года.
Награды:
• приз «Серебряный Олимп» на III Федеральном фестивале «Театральный Олимп» в 2013 г. — спектакль «Гамлет» (У. Шекспир).

О спектакле.

Еще постер

Релиз
Огромное спасибо Доброму человеку за предоставленый материал!!!

Качество видео:...SATRip
Формат:.................AVI
Видео:..720x544 (1.32:1), 25 fps, XviD MPEG-4 ~1700 kbps avg, 0.17 bit/pixel
Аудио:..48 kHz, MPEG Layer 3, 2 ch, ~128.00 kbps avg

Отчет MI

1-е действие
Общее
Полное имя : Gamlet_ Krasnodarskij.ATD.im.Gor'kogo.(2.dejstviya.iz,2).2014.XviD.SATRip.fenixclub\Gamlet_ Krasnodarskij.ATD.im.Gor'kogo.(1-e.dejstvie.iz,2).2014.XviD.SATRip.fenixclub.avi
Формат : AVI
Формат/Информация : Audio Video Interleave
Размер файла : 1,20 Гбайт
Продолжительность : 1 ч. 33 м.
Общий поток : 1839 Кбит/сек
Программа кодирования : VirtualDubModRus 1.5.10.2 (build 2542/release)
Библиотека кодирования : VirtualDubMod build 2542/release
Видео
Идентификатор : 0
Формат : MPEG-4 Visual
Профиль формата : Advanced Simple@L5
Параметр BVOP формата : 2
Параметр QPel формата : Нет
Параметр GMC формата : Без точки перехода
Параметр матрицы формата : Default (H.263)
Режим смешивания : Сжатый битовый поток
Идентификатор кодека : XVID
Идентификатор кодека/Подсказка : XviD
Продолжительность : 1 ч. 33 м.
Битрейт : 1701 Кбит/сек
Ширина : 720 пикселей
Высота : 544 пикселя
Соотношение сторон : 4:3
Частота кадров : 25,000 кадров/сек
Цветовое пространство : YUV
Субдискретизация насыщенности : 4:2:0
Битовая глубина : 8 бит
Тип развёртки : Прогрессивная
Метод сжатия : С потерями
Бит/(Пиксели*Кадры) : 0.174
Размер потока : 1,11 Гбайт (93%)
Библиотека кодирования : XviD 1.2.1 (UTC 2008-12-04)
Аудио
Идентификатор : 1
Формат : MPEG Audio
Версия формата : Version 1
Профиль формата : Layer 3
Идентификатор кодека : 55
Идентификатор кодека/Подсказка : MP3
Продолжительность : 1 ч. 33 м.
Вид битрейта : Постоянный
Битрейт : 128 Кбит/сек
Каналы : 2 канала
Частота : 48,0 КГц
Метод сжатия : С потерями
Размер потока : 85,8 Мбайт (7%)
Выравнивание : Соединение по промежуткам
Продолжительность промежутка : 40 мс. (1,00 видеокадр)
Время предзагрузки промежутка : 504 мс.
Библиотека кодирования : LAME3.99r
Настройки программы : -m s -V 4 -q 2 -lowpass 17 -b 128
1-е действие
Общее
Полное имя : Gamlet_ Krasnodarskij.ATD.im.Gor'kogo.(2.dejstviya.iz,2).2014.XviD.SATRip.fenixclub\Gamlet_ Krasnodarskij.ATD.im.Gor'kogo.(2-e.dejstvie.iz,2).2014.XviD.SATRip.fenixclub.avi
Формат : AVI
Формат/Информация : Audio Video Interleave
Размер файла : 990 Мбайт
Продолжительность : 1 ч. 15 м.
Общий поток : 1839 Кбит/сек
Программа кодирования : VirtualDubModRus 1.5.10.2 (build 2542/release)
Библиотека кодирования : VirtualDubMod build 2542/release
Видео
Идентификатор : 0
Формат : MPEG-4 Visual
Профиль формата : Advanced Simple@L5
Параметр BVOP формата : 2
Параметр QPel формата : Нет
Параметр GMC формата : Без точки перехода
Параметр матрицы формата : Default (H.263)
Режим смешивания : Сжатый битовый поток
Идентификатор кодека : XVID
Идентификатор кодека/Подсказка : XviD
Продолжительность : 1 ч. 15 м.
Битрейт : 1701 Кбит/сек
Ширина : 720 пикселей
Высота : 544 пикселя
Соотношение сторон : 4:3
Частота кадров : 25,000 кадров/сек
Цветовое пространство : YUV
Субдискретизация насыщенности : 4:2:0
Битовая глубина : 8 бит
Тип развёртки : Прогрессивная
Метод сжатия : С потерями
Бит/(Пиксели*Кадры) : 0.174
Размер потока : 916 Мбайт (93%)
Библиотека кодирования : XviD 1.2.1 (UTC 2008-12-04)
Аудио
Идентификатор : 1
Формат : MPEG Audio
Версия формата : Version 1
Профиль формата : Layer 3
Идентификатор кодека : 55
Идентификатор кодека/Подсказка : MP3
Продолжительность : 1 ч. 15 м.
Вид битрейта : Постоянный
Битрейт : 128 Кбит/сек
Каналы : 2 канала
Частота : 48,0 КГц
Метод сжатия : С потерями
Размер потока : 68,9 Мбайт (7%)
Выравнивание : Соединение по промежуткам
Продолжительность промежутка : 40 мс. (1,00 видеокадр)
Время предзагрузки промежутка : 504 мс.
Библиотека кодирования : LAME3.99r
Настройки программы : -m s -V 4 -q 2 -lowpass 17 -b 128

Скриншоты


Альтернативный хост





Показать сообщения:    

Текущее время: 04-Дек 00:50

Часовой пояс: UTC + 3


Вы не можете начинать темы
Вы не можете отвечать на сообщения
Вы не можете редактировать свои сообщения
Вы не можете удалять свои сообщения
Вы не можете голосовать в опросах
Вы не можете прикреплять файлы к сообщениям
Вы не можете скачивать файлы