Чехов-GALA (Алексей Бородин) [2012 г., комедия, SATRip] Российский академический молодежный театр


 

[Цитировать]

Чехов-GALAНазвание театра: Российский академический молодежный театр
Жанр: комедия.
Год выпуска: 2012.
Продолжительность: 01:54:48.
Режиссер: Алексей Бородин.
Действующие лица и исполнители:
Нюхин ("О вреде табака") - Алексей Маслов,
Чубуков ("Предположение") - Андрей Бажин,
Наталья Степановна ("Предположение") - Дарья Семенова,
Ломов ("Предположение") - Александр Доронин,
Попова ("Медведь") - Мария Рыщенкова,
Смирнов ("Медведь") - Степан Морозов,
Лука ("Медведь") - Олег Зима,
Шипучин ("Медведь") - заслуженный артист России Алексей Веселкин,
Татьяна Алексеевна ("Юбилей") - Рамиля Искандер,
Хирин ("Юбилей") - заслуженный артист России Виктор Цымбал,
Мерчуткина ("Юбилей") - заслуженная артистка России Татьяна Матюхова,
Член банка ("Юбилей") - заслуженный артист России Вячеслав Николаев,
Жигалов ("Свадьба") - народный артист России Александр Хотченков,
Настасья Тимофеевна ("Свадьба") - Ульяна Урванцева,
Дашенька ("Свадьба") - Ирина Таранник,
Апломбов ("Свадьба") - Виктор Потапешкин,
Ревунов-Караулов ("Свадьба") - народный артист России Юльен Балмусов,
Нюнин ("Свадьба") - Денис Шведов,
Змеюкина ("Свадьба") - Нелли Уварова,
Ять ("Свадьба") - Михаил Шкловский,
Дымба ("Свадьба") - Андрей Сипин,
Мозговой ("Свадьба") - Владислав Погиба.
Описание:
Спектакль по одноактным пьесам А.П.Чехова "Медведь", "Предложение", "Свадьба", "Юбилей", "О вреде табака".
Каждая история врывается в другую историю, прерывает ее, начало следующей - в момент остановки предыдущей. Калейдоскоп человеческих страстей, столкновений, абсурдных ситуаций, неосуществленных замыслов оборачивается фантасмагорией "веселого" Чехова, энергией его театральности, чередой актерских бенефисов.

Дополнительная информация:
Страна: Россия .
Выпущено: © Культура.рф.
Автор: Антон Чехов.
Художник: народный художник России Станислав Бенедиктов.
Художник по костюмам: Валентина Комолова.
Композитор: Натали Плэже.
Художник по свету: заслуженный работник культуры России Андрей Изотов.
Хормейстер: Максим Олейников.
Премьера состоялась 19 сентября 2010 года.

О спектакле.
Релиз
Огромное спасибо Доброму человеку за предоставленый материал!!!

Качество: SATRip
Формат: AVI
Видео:..720x400 (1.80:1), 25 fps, XviD MPEG-4 ~1562 kbps avg, 0.22 bit/pixel
Аудио:..44.100 kHz, MPEG Layer 3, 2 ch, ~128.00 kbps avg

Отчет Media Info

Общее
Полное имя : Chehov.Gala_RAMT.2012.XviD.SATRip.fenixclub.avi
Формат : AVI
Формат/Информация : Audio Video Interleave
Размер файла : 1,36 Гбайт
Продолжительность : 1 ч. 54 м.
Общий поток : 1701 Кбит/сек
Программа кодирования : VirtualDubModRus 1.5.10.2 (build 2542/release)
Библиотека кодирования : VirtualDub build 34753/release
Видео
Идентификатор : 0
Формат : MPEG-4 Visual
Профиль формата : Advanced Simple@L5
Параметр BVOP формата : 2
Параметр QPel формата : Нет
Параметр GMC формата : Без точки перехода
Параметр матрицы формата : Default (H.263)
Режим смешивания : Сжатый битовый поток
Идентификатор кодека : XVID
Идентификатор кодека/Подсказка : XviD
Продолжительность : 1 ч. 54 м.
Битрейт : 1563 Кбит/сек
Ширина : 720 пикселей
Высота : 400 пикселей
Соотношение сторон : 16:9
Частота кадров : 25,000 кадров/сек
Цветовое пространство : YUV
Субдискретизация насыщенности : 4:2:0
Битовая глубина : 8 бит
Тип развёртки : Прогрессивная
Метод сжатия : С потерями
Бит/(Пиксели*Кадры) : 0.217
Размер потока : 1,25 Гбайт (92%)
Библиотека кодирования : XviD 1.2.1 (UTC 2008-12-04)
Аудио
Идентификатор : 1
Формат : MPEG Audio
Версия формата : Version 1
Профиль формата : Layer 3
Режим : Joint stereo
Расширение режима : MS Stereo
Идентификатор кодека : 55
Идентификатор кодека/Подсказка : MP3
Продолжительность : 1 ч. 54 м.
Вид битрейта : Постоянный
Битрейт : 128 Кбит/сек
Каналы : 2 канала
Частота : 44,1 КГц
Метод сжатия : С потерями
Размер потока : 105 Мбайт (8%)
Выравнивание : Разделение по промежуткам
Продолжительность промежутка : 40 мс. (1,00 видеокадр)
Время предзагрузки промежутка : 500 мс.
Библиотека кодирования : LAME3.99.5

Скриншот с названием постановки

Скриншоты


Альтернативный хост





Показать сообщения:    

Текущее время: 05-Дек 01:26

Часовой пояс: UTC + 3


Вы не можете начинать темы
Вы не можете отвечать на сообщения
Вы не можете редактировать свои сообщения
Вы не можете удалять свои сообщения
Вы не можете голосовать в опросах
Вы не можете прикреплять файлы к сообщениям
Вы не можете скачивать файлы