Прибайкальская кадриль (Михаил Фейгин) [2013 г., Комедия, WEB-DLRip] Камерный драматический театр "Арт-Хаус" и "Театр FM"


 

[Цитировать]

Прибайкальская кадрильТеатр: Камерный драматический театр "Арт-Хаус" и "Театр FM".
Год выпуска: 2013.
Жанр: Комедия.
Продолжительность: 01:41:51.
Режиссер-постановщик: Михаил Фейгин.
Действующие лица и исполнители:
Николай Звягинцев - Андрей Стоянов
Лида, его жена - Татьяна Бунегина
Саня Арефьев, сосед Николая - Вячеслав Крутиков
Валя, его жена - Раиса Тхагапсоева
Макеевна, одинокая бабенка - Светлана Васина.
О спектакле:
В далекой прибайкальской деревушке живут две семейные пары – Коля Звягинцев с женой Лидой и его сосед Саня Арефьев с женой Валей. Женаты они давно, дружат много лет и всё друг про друга знают. Но чужое всегда кажется лучше, чем свое.
Однако неожиданная кража кирпичей привела к разладу и кавардаку, в результате чего необходимо приложить массу усилий, чтобы вернуть все на свои места.
Этот спектакль Театр FM представил на Театральном фестивале "Московская обочина" 08 ноября 2013 года. Первая Международная Открытая Афиша мероприятий в области культуры и искусства "ПроАртИнфо" - "ЛУЧШИЙ АКТЕРСКИЙ АНСАМБЛЬ".

Дополнительная информация:
Страна: Россия .
Автор: Владимир Гуркин.

О спектакле.
Релиз
Рип sharky.

Качество видео:...WEB-DLRip
Формат:.................AVI
Видео:..704x528 (1.33:1), 25 fps, XviD build 50 ~1835 kbps avg, 0.20 bit/pixel
Аудио:..48 kHz, AC3 Dolby Digital, 2/0 (L,R) ch, ~192 kbps

Отчет Media Info

General
Complete name : Pribajkal'skaya.kadril'_KDT.Art-Haus&Teatr.FM.2013.XviD.WEB-DLRip.fenixclub.avi
Формат : AVI
Формат/Информация : Audio Video Interleave
Размер файла : 1,09 Гбайт
Продолжительность : 1 ч. 31 м.
Общий поток : 1713 Кбит/сек
Программа кодирования : VirtualDubMod 1.5.10.2 (build 2540/release)
Библиотека кодирования : VirtualDubMod build 2540/release
Видео
Идентификатор : 0
Формат : MPEG-4 Visual
Профиль формата : Advanced Simple@L5
Параметр BVOP формата : 1
Параметр QPel формата : Нет
Параметр GMC формата : Без точки перехода
Параметр матрицы формата : Default (H.263)
Идентификатор кодека : XVID
Идентификатор кодека/Подсказка : XviD
Продолжительность : 1 ч. 31 м.
Битрейт : 1511 Кбит/сек
Ширина : 704 пикселя
Высота : 400 пикселей
Соотношение сторон : 16:9
Частота кадров : 25,000 кадров/сек
Цветовое пространство : YUV
Субдискретизация насыщенности : 4:2:0
Битовая глубина : 8 бит
Тип развёртки : Прогрессивная
Метод сжатия : С потерями
Бит/(Пиксели*Кадры) : 0.215
Размер потока : 985 Мбайт (88%)
Библиотека кодирования : XviD 1.2.0.dev47 (UTC 2006-11-01)
Аудио
Идентификатор : 1
Формат : AC-3
Формат/Информация : Audio Coding 3
Расширение режима : CM (complete main)
Параметр Endianness формата : Big
Идентификатор кодека : 2000
Продолжительность : 1 ч. 31 м.
Вид битрейта : Постоянный
Битрейт : 192 Кбит/сек
Каналы : 2 канала
Расположение каналов : Front: L R
Частота : 48,0 КГц
Битовая глубина : 16 бит
Метод сжатия : С потерями
Размер потока : 125 Мбайт (11%)
Выравнивание : Разделение по промежуткам
Продолжительность промежутка : 40 мс. (1,00 видеокадр)
Время предзагрузки промежутка : 500 мс.

Скриншот с названием постановки

Скриншоты


Альтернативный хост





Показать сообщения:    

Текущее время: 11-Дек 14:57

Часовой пояс: UTC + 3


Вы не можете начинать темы
Вы не можете отвечать на сообщения
Вы не можете редактировать свои сообщения
Вы не можете удалять свои сообщения
Вы не можете голосовать в опросах
Вы не можете прикреплять файлы к сообщениям
Вы не можете скачивать файлы