Сорри (Владимир Пушной) [2002 г., Украина, трагикомедия, WEB-DLRip] Луганский академический областной русский драматический театр имени П.Б. Луспекаева


 

[Цитировать]

Сорри (2 действия)Название театра: Луганский академический областной русский драматический театр имени П.Б. Луспекаева.
Год выпуска: 2002.
Жанр: трагикомедия.
Продолжительность: 00:49:04 + 00:43:38.
Язык: Русский.
Режиссеры: Владимир Пушной, Ирина Смага.
Действующие лица и исполнители:
Она (Инна Рассадина) - заслуженная артистка Украины Полина Шкуратова,
Он (Юрий Звонарев) – Евгений Кравцов.
О спектакле:
История любви и горького обмана.
Старая любовь главной героини Юра Звонарев, который пропадал двадцать лет неизвестно где, возвращается из Израиля за своей любимой женщиной, чтобы увезти её с собой навсегда. Они обвенчались уже в русской церкви, учитывая то, что герой стал евреем. Обвенчались, а теперь по этому поводу выпивают. Сидят, общаются, в выражениях колоритных и не всегда печатных разговаривают о всех возникших мировых проблемах: начиная от еврейского вопроса и заканчивая темой русского пьянства. Также вспоминают свою интимную жизнь и молодость. Место для первой в жизни брачной ночи, но место это находилось в морге, там работала героиня, она была бывшей диссиденткой и поэтессой, а сейчас является обычной санитаркой Инной Рассадиной...

Дополнительная информация:
Страна: Украина .
Выпущено: Луганская областная государственная телерадиокомпания.
Автор: Александр Галин.
Режиссер-постановщик спектакля: Владимир Пушной.
Художник-постановщик: Виктор Горбулин.
Композитор: Михаил Мордкович.
Режиссер телеверсии: Ирина Смага.
Операторы: Виктор Коноваленко, Юрий Сутулов, Валентин Пилипенко, Кирилл Новожилов.

Релиз
Рип sharky.

Качество видео:...WEB-DLRip
Формат:.................AVI
Видео:..704x528 (1.33:1), 25 fps, XviD build 47 ~1482 kbps avg, 0.16 bit/pixel
Аудио:..48 kHz, AC3 Dolby Digital, 2/0 (L,R) ch, ~192 kbps

Отчет MediaInfo

1-е действие
Общее
Полное имя : Sorry.Luganskij.AORDT.(2.dejstvija.iz. 2).2002.XviD.WEB-DLRip.fenixclub\Sorry.Luganskij.AORDT.(1-e.dejstvie.iz. 2).2002.XviD.WEB-DLRip.fenixclub.avi
Формат : AVI
Формат/Информация : Audio Video Interleave
Размер файла : 591 Мбайт
Продолжительность : 49 м.
Общий поток : 1685 Кбит/сек
Программа кодирования : VirtualDubMod 1.5.10.2 (build 2540/release)
Библиотека кодирования : VirtualDubMod build 2540/release
Видео
Идентификатор : 0
Формат : MPEG-4 Visual
Профиль формата : Advanced Simple@L5
Параметр BVOP формата : 1
Параметр QPel формата : Нет
Параметр GMC формата : Без точки перехода
Параметр матрицы формата : Default (H.263)
Идентификатор кодека : XVID
Идентификатор кодека/Подсказка : XviD
Продолжительность : 49 м.
Битрейт : 1483 Кбит/сек
Ширина : 704 пикселя
Высота : 528 пикселей
Соотношение сторон : 4:3
Частота кадров : 25,000 кадров/сек
Цветовое пространство : YUV
Субдискретизация насыщенности : 4:2:0
Битовая глубина : 8 бит
Тип развёртки : Прогрессивная
Метод сжатия : С потерями
Бит/(Пиксели*Кадры) : 0.160
Размер потока : 520 Мбайт (88%)
Библиотека кодирования : XviD 1.2.0.dev47 (UTC 2006-11-01)
Аудио
Идентификатор : 1
Формат : AC-3
Формат/Информация : Audio Coding 3
Расширение режима : CM (complete main)
Параметр Endianness формата : Big
Идентификатор кодека : 2000
Продолжительность : 49 м.
Вид битрейта : Постоянный
Битрейт : 192 Кбит/сек
Каналы : 2 канала
Расположение каналов : Front: L R
Частота : 48,0 КГц
Битовая глубина : 16 бит
Метод сжатия : С потерями
Размер потока : 67,4 Мбайт (11%)
Выравнивание : Разделение по промежуткам
Продолжительность промежутка : 40 мс. (1,00 видеокадр)
Время предзагрузки промежутка : 500 мс.
2-е действие
Общее
Полное имя : Sorry.Luganskij.AORDT.(2.dejstvija.iz. 2).2002.XviD.WEB-DLRip.fenixclub\Sorry.Luganskij.AORDT.(2-e.dejstvie.iz. 2).2002.XviD.WEB-DLRip.fenixclub.avi
Формат : AVI
Формат/Информация : Audio Video Interleave
Размер файла : 526 Мбайт
Продолжительность : 43 м.
Общий поток : 1685 Кбит/сек
Программа кодирования : VirtualDubMod 1.5.10.2 (build 2540/release)
Библиотека кодирования : VirtualDubMod build 2540/release
Видео
Идентификатор : 0
Формат : MPEG-4 Visual
Профиль формата : Advanced Simple@L5
Параметр BVOP формата : 1
Параметр QPel формата : Нет
Параметр GMC формата : Без точки перехода
Параметр матрицы формата : Default (H.263)
Идентификатор кодека : XVID
Идентификатор кодека/Подсказка : XviD
Продолжительность : 43 м.
Битрейт : 1483 Кбит/сек
Ширина : 704 пикселя
Высота : 528 пикселей
Соотношение сторон : 4:3
Частота кадров : 25,000 кадров/сек
Цветовое пространство : YUV
Субдискретизация насыщенности : 4:2:0
Битовая глубина : 8 бит
Тип развёртки : Прогрессивная
Метод сжатия : С потерями
Бит/(Пиксели*Кадры) : 0.160
Размер потока : 463 Мбайт (88%)
Библиотека кодирования : XviD 1.2.0.dev47 (UTC 2006-11-01)
Аудио
Идентификатор : 1
Формат : AC-3
Формат/Информация : Audio Coding 3
Расширение режима : CM (complete main)
Параметр Endianness формата : Big
Идентификатор кодека : 2000
Продолжительность : 43 м.
Вид битрейта : Постоянный
Битрейт : 192 Кбит/сек
Каналы : 2 канала
Расположение каналов : Front: L R
Частота : 48,0 КГц
Битовая глубина : 16 бит
Метод сжатия : С потерями
Размер потока : 59,9 Мбайт (11%)
Выравнивание : Разделение по промежуткам
Продолжительность промежутка : 40 мс. (1,00 видеокадр)
Время предзагрузки промежутка : 500 мс.

Скриншоты


Альтернативный хост





Показать сообщения:    

Текущее время: 20-Янв 17:01

Часовой пояс: UTC + 3


Вы не можете начинать темы
Вы не можете отвечать на сообщения
Вы не можете редактировать свои сообщения
Вы не можете удалять свои сообщения
Вы не можете голосовать в опросах
Вы не можете прикреплять файлы к сообщениям
Вы не можете скачивать файлы