Евгений Онегин. Антонина Кузнецова [2014 г., Литературные чтения, SATRip] Театр музыки и поэзии Елены Камбуровой


 

[Цитировать]

Евгений Онегин. Антонина Кузнецова Название театра: Театр музыки и поэзии под руководством Елены Камбуровой.
Год выпуска: 2014.
Жанр: Литературные чтения.
Продолжительность: 01:17:42.
Исполнительница: народная артистка России Антонина Кузнецова.
Описание:
Народная артистка России Антонина Кузнецова читает главы из романа Александра Сергеевича Пушкина "Евгений Онегин".
Встреча с Антониной Кузнецовой - это встреча с талантливой исполнительницей чтецких спектаклей, профессором РАТИ, автором популярных концертных программ, в которых представлены подлинные шедевры мировой литературы.
В сольном репертуаре актрисы их более тридцати, куда входят лучшие образцы как отечественной, так и зарубежной поэзии. И каждая программа – это выражение "духовно-душевного существования человека". И автора, и лирического героя, и, конечно же, самой артистки.

Дополнительная информация:
Страна: Россия .
Выпущено: Театр музыки и поэзии Елены Камбуровой, © Телеканал «Театр».
Автор: Александр Пушкин.

Релиз
Огромное спасибо Доброму человеку за предоставленый материал!!!
Качество видео:...SATRip
Формат:.................AVI
Видео:..720x400 (1.80:1), 25 fps, XviD MPEG-4 ~1203 kbps avg, 0.17 bit/pixel
Аудио:..48 kHz, MPEG Layer 3, 2 ch, ~128.00 kbps avg

Отчет Media Info

General
Complete name : Evgenij.Onegin.Kuznecova.2014.XviD.SATRip.fenixclub.avi
Формат : AVI
Формат/Информация : Audio Video Interleave
Размер файла : 746 Мбайт
Продолжительность : 1 ч. 17 м.
Общий поток : 1342 Кбит/сек
Программа кодирования : VirtualDubModRus 1.5.10.2 (build 2542/release)
Библиотека кодирования : VirtualDub build 34753/release
Видео
Идентификатор : 0
Формат : MPEG-4 Visual
Профиль формата : Advanced Simple@L5
Параметр BVOP формата : 2
Параметр QPel формата : Нет
Параметр GMC формата : Без точки перехода
Параметр матрицы формата : Default (H.263)
Режим смешивания : Сжатый битовый поток
Идентификатор кодека : XVID
Идентификатор кодека/Подсказка : XviD
Продолжительность : 1 ч. 17 м.
Битрейт : 1204 Кбит/сек
Ширина : 720 пикселей
Высота : 400 пикселей
Соотношение сторон : 16:9
Частота кадров : 25,000 кадров/сек
Цветовое пространство : YUV
Субдискретизация насыщенности : 4:2:0
Битовая глубина : 8 бит
Тип развёртки : Прогрессивная
Метод сжатия : С потерями
Бит/(Пиксели*Кадры) : 0.167
Размер потока : 669 Мбайт (90%)
Библиотека кодирования : XviD 1.2.1 (UTC 2008-12-04)
Аудио
Идентификатор : 1
Формат : MPEG Audio
Версия формата : Version 1
Профиль формата : Layer 3
Режим : Joint stereo
Расширение режима : MS Stereo
Идентификатор кодека : 55
Идентификатор кодека/Подсказка : MP3
Продолжительность : 1 ч. 17 м.
Вид битрейта : Постоянный
Битрейт : 128 Кбит/сек
Каналы : 2 канала
Частота : 48,0 КГц
Метод сжатия : С потерями
Размер потока : 71,1 Мбайт (10%)
Выравнивание : Разделение по промежуткам
Продолжительность промежутка : 40 мс. (1,00 видеокадр)
Время предзагрузки промежутка : 500 мс.

Скриншоты

Альтернативный хост




Показать сообщения:    

Текущее время: 03-Дек 22:47

Часовой пояс: UTC + 3


Вы не можете начинать темы
Вы не можете отвечать на сообщения
Вы не можете редактировать свои сообщения
Вы не можете удалять свои сообщения
Вы не можете голосовать в опросах
Вы не можете прикреплять файлы к сообщениям
Вы не можете скачивать файлы