Огниво (Тереза Дурова) [2014 г., Мюзикл для всей семьи, SATRip] «Театриум на Серпуховке»


 

[Цитировать]

Огниво (2 отделения)Название театра: «Театриум на Серпуховке».
Год выпуска: 2014.
Жанр: Мюзикл для всей семьи.
Продолжительность: 00:40:10 + 00:52:52.
Режиссеры: народная артистка России Тереза Дурова, Владимир Ананьев, Елена Черняк.
Действующие лица и исполнители:
Принцесса - Анастасия Тюкова,
Принц - Гергий Сукосян,
Первая фрейлина - Юлия Юнушева,
Вторая Фрейлина - Оксана Варняга,
Третья фрейлина - Юлия Андриянова,
Четвёртая фрейлина - Юлия Сдвижкова,
Учитель - Константин Лещенко,
Дворецкий - Пётр Королёв,
Бедная Лиза - Анна Прокопьева,
Мачеха - Татьяна Михайлюк,
Первая дочь - Виолетта Бучинская,
Вторая дочь - Эльвира Казанцева,
Солдат - Евгений Мишечкин,
Заяц - Геннадий Краковский,
Команда весёлых конькобежцев: Людмила Марфелева, Наталья Самсонова, Сергей Дик, Мамука Заркуа, Сергей Рывкин.
О спектакле:
Поэтичная и удивительная история "Огниво" короля сказок Ганса Христиана Андерсена теперь на сцене "Театриума на Серпуховке". История о любви обыкновенного солдата к избалованной и своенравной принцессе наполнена волшебными событиями и персонажами и преподнесена в современном ключе. Модная хореография, каскадёрские драки, спецэффекты, зрелищные декорации, оригинальные режиссёрские находки, динамично развивающиеся события - всё это увлекает и детей, и взрослых. От начала и до конца спектакль держит зрителя в напряжении, вызывает бурю чувств и эмоций. Благодаря подаче и акцентам он очень актуален и понятен подрастающему поколению. А музыка, сочинённая и исполняемая Оркестром Робинзона Крузo - это смешение джаза, трип-хопа, даба, афробита, этно, эмбиента и иных, модных, интересных и современных направлений.
Нет-нет, никакого авангарда, никаких новомодных прочтений и интерпретаций. Перед вами классический сюжет и любимые герои. Разве что сказка стала чуточку добрее. Солдат - благодушнее. Принцесса - прекраснее. Собаки - умнее. А колдунья… Впрочем, увидите сами! Старик Андерсен наверняка улыбнулся бы, посмотрев спектакль.

Дополнительная информация:
Страна: Россия .
Выпущено: © АНО "Общественное телевидение России".
Автор инсценировки: Артём Абрамов.
Композитор: Аркадий Мартыненко, Николай Анохин, Сергей Беляев, Сергей Таюшев-младший, Павел Куц, Стас Астахов, Наиль Курамшин, Родион Михайлов.
Текст песен: Андрей Усачёв.
Режиссёр-постановщик: народная артистка России Тереза Дурова.
Режиссёр: Владимир Ананьев.
Художник-постановщик: народный художник России Мария Рыбасова.
Художники по костюмам: Ольга Резниченко.
Хореограф-постановщик: Артур Ощепков.
Художник по свету: заслуженный работник культуры России Андрей Изотов.
Дирижер-постановщик: Светлана Филиппович.
Музыкальный редактор: Лариса Соболева.
Художники по гриму: Наталья Усач, Виктория Хабарова.
Хореограф-репетитор: Наталья Филимонова.
Концертмейстер: Ольга Яковлева.
Педагог по вокалу: Юлия Рассудова, Любовь Полякова, Ксения Манченко.
Художественный руководитель «Театриума на Серпуховке»: народная артистка России Тереза Дурова.
Премьера спектакля: сезон 2011-2012 года.
Режиссер телеверсии: Елена Черняк.
Оператор-постановщик: Игорь Хорев.
Оркестр:
Дирижёр
- Максим Гуткин,
Синтезатор - Ольга Яковлева,
Бас - Евгений Козлов, Петр Горюшкин,
Электрогитара - Вадим Молугов,
Гитара акустическая - Виталий Чубейко,
Ударные - Василий Колода,
Скрипка - Илья Мовчан, Александр Бронвейбер,
Саксофон, кларнет - Сергей Ирьянов, Кочар Темирджанов,
Саксофон баритон - Евгений Крылевский, Игорь Гуревич,
Эффекты - Николай Крюченков,
Бэк-вокал - Виктория Каминская, Виолетта Бучинская, Павел Никитченко.

О спектакле.
Релиз
Рип lesik689.

Качество видео:...SATRip
Формат:.................AVI
Видео:..720x400 (1.80:1), 25 fps, XviD MPEG-4 ~1898 kbps avg, 0.26 bit/pixel
Аудио:..48 kHz, AC3 Dolby Digital, 2/0 (L,R) ch, ~192 kbps

Отчет Media Info

1-е отделение:
General
Complete name : Ognivo_Teatrium.na.Serpuhovke.(2.otdeleniya.iz.2).2014.XviD.SATRip.fenixclub\Ognivo_Teatrium.na.Serpuhovke.(1-e.otdelenie.iz.2).2014.XviD.SATRip.fenixclub.avi
Формат : AVI
Формат/Информация : Audio Video Interleave
Размер файла : 603 Мбайт
Продолжительность : 40 м.
Общий поток : 2098 Кбит/сек
Программа кодирования : VirtualDubMod 1.5.10.2 (build 2542/release)
Библиотека кодирования : VirtualDubMod build 2542/release
Видео
Идентификатор : 0
Формат : MPEG-4 Visual
Профиль формата : Advanced Simple@L5
Параметр BVOP формата : 2
Параметр QPel формата : Нет
Параметр GMC формата : Без точки перехода
Параметр матрицы формата : Default (MPEG)
Режим смешивания : Сжатый битовый поток
Идентификатор кодека : XVID
Идентификатор кодека/Подсказка : XviD
Продолжительность : 40 м.
Битрейт : 1897 Кбит/сек
Ширина : 720 пикселей
Высота : 400 пикселей
Соотношение сторон : 5:4
Соотношение сторон в оригинале : 16:9
Частота кадров : 25,000 кадров/сек
Цветовое пространство : YUV
Субдискретизация насыщенности : 4:2:0
Битовая глубина : 8 бит
Тип развёртки : Прогрессивная
Метод сжатия : С потерями
Бит/(Пиксели*Кадры) : 0.263
Размер потока : 545 Мбайт (90%)
Библиотека кодирования : XviD 64
Аудио
Идентификатор : 1
Формат : AC-3
Формат/Информация : Audio Coding 3
Расширение режима : CM (complete main)
Параметр Endianness формата : Big
Идентификатор кодека : 2000
Продолжительность : 40 м.
Вид битрейта : Постоянный
Битрейт : 192 Кбит/сек
Каналы : 2 канала
Расположение каналов : Front: L R
Частота : 48,0 КГц
Битовая глубина : 16 бит
Метод сжатия : С потерями
Размер потока : 55,2 Мбайт (9%)
Выравнивание : Соединение по промежуткам
Продолжительность промежутка : 40 мс. (1,00 видеокадр)
Время предзагрузки промежутка : 512 мс.
2-е отделение:
General
Complete name : Ognivo_Teatrium.na.Serpuhovke.(2.otdeleniya.iz.2).2014.XviD.SATRip.fenixclub\Ognivo_Teatrium.na.Serpuhovke.(2-e.otdelenie.iz.2).2014.XviD.SATRip.fenixclub.avi
Формат : AVI
Формат/Информация : Audio Video Interleave
Размер файла : 794 Мбайт
Продолжительность : 52 м.
Общий поток : 2100 Кбит/сек
Программа кодирования : VirtualDubMod 1.5.10.2 (build 2542/release)
Библиотека кодирования : VirtualDubMod build 2542/release
Видео
Идентификатор : 0
Формат : MPEG-4 Visual
Профиль формата : Advanced Simple@L5
Параметр BVOP формата : 2
Параметр QPel формата : Нет
Параметр GMC формата : Без точки перехода
Параметр матрицы формата : Default (MPEG)
Режим смешивания : Сжатый битовый поток
Идентификатор кодека : XVID
Идентификатор кодека/Подсказка : XviD
Продолжительность : 52 м.
Битрейт : 1899 Кбит/сек
Ширина : 720 пикселей
Высота : 400 пикселей
Соотношение сторон : 5:4
Соотношение сторон в оригинале : 16:9
Частота кадров : 25,000 кадров/сек
Цветовое пространство : YUV
Субдискретизация насыщенности : 4:2:0
Битовая глубина : 8 бит
Тип развёртки : Прогрессивная
Метод сжатия : С потерями
Бит/(Пиксели*Кадры) : 0.264
Размер потока : 718 Мбайт (90%)
Библиотека кодирования : XviD 64
Аудио
Идентификатор : 1
Формат : AC-3
Формат/Информация : Audio Coding 3
Расширение режима : CM (complete main)
Параметр Endianness формата : Big
Идентификатор кодека : 2000
Продолжительность : 52 м.
Вид битрейта : Постоянный
Битрейт : 192 Кбит/сек
Каналы : 2 канала
Расположение каналов : Front: L R
Частота : 48,0 КГц
Битовая глубина : 16 бит
Метод сжатия : С потерями
Размер потока : 72,6 Мбайт (9%)
Выравнивание : Соединение по промежуткам
Продолжительность промежутка : 40 мс. (1,00 видеокадр)
Время предзагрузки промежутка : 512 мс.

Скриншоты с названием постановки

Скриншоты


Альтернативный хост





Показать сообщения:    

Текущее время: 08-Дек 21:06

Часовой пояс: UTC + 3


Вы не можете начинать темы
Вы не можете отвечать на сообщения
Вы не можете редактировать свои сообщения
Вы не можете удалять свои сообщения
Вы не можете голосовать в опросах
Вы не можете прикреплять файлы к сообщениям
Вы не можете скачивать файлы